  0
SECTION
  2
HEADER
  9
$ACADVER
  1
AC1006
  9
$INSBASE
 10
0.0
 20
0.0
 30
0.0
  9
$EXTMIN
 10
-115.0
 20
-23.0
  9
$EXTMAX
 10
23.0
 20
178.109375
  9
$LIMMIN
 10
-115.0
 20
-23.0
  9
$LIMMAX
 10
23.0
 20
178.109375
  9
$ORTHOMODE
 70
     0
  9
$REGENMODE
 70
     1
  9
$FILLMODE
 70
     1
  9
$QTEXTMODE
 70
     0
  9
$MIRRTEXT
 70
     1
  9
$DRAGMODE
 70
     2
  9
$LTSCALE
 40
1.0
  9
$OSMODE
 70
     0
  9
$ATTMODE
 70
     1
  9
$TEXTSIZE
 40
3.0
  9
$TRACEWID
 40
0.5
  9
$TEXTSTYLE
  7
STANDARD
  9
$CLAYER
  8
0
  9
$CELTYPE
  6
BYLAYER
  9
$CECOLOR
 62
   256
  9
$DIMSCALE
 40
1.0
  9
$DIMASZ
 40
3.0
  9
$DIMEXO
 40
1.0
  9
$DIMDLI
 40
5.0
  9
$DIMRND
 40
0.0
  9
$DIMDLE
 40
5.0
  9
$DIMEXE
 40
2.0
  9
$DIMTP
 40
0.0
  9
$DIMTM
 40
0.0
  9
$DIMTXT
 40
3.0
  9
$DIMCEN
 40
2.0
  9
$DIMTSZ
 40
0.0
  9
$DIMTOL
 70
     0
  9
$DIMLIM
 70
     0
  9
$DIMTIH
 70
     0
  9
$DIMTOH
 70
     0
  9
$DIMSE1
 70
     0
  9
$DIMSE2
 70
     0
  9
$DIMTAD
 70
     1
  9
$DIMZIN
 70
     8
  9
$DIMBLK
  1

  9
$DIMASO
 70
     1
  9
$DIMSHO
 70
     0
  9
$DIMPOST
  1

  9
$DIMAPOST
  1

  9
$DIMALT
 70
     0
  9
$DIMALTD
 70
     4
  9
$DIMALTF
 40
25.4
  9
$DIMLFAC
 40
1.0
  9
$DIMTOFL
 70
     1
  9
$DIMTVP
 40
1.0
  9
$DIMTIX
 70
     0
  9
$DIMSOXD
 70
     0
  9
$DIMSAH
 70
     0
  9
$DIMBLK1
  1

  9
$DIMBLK2
  1

  9
$LUNITS
 70
     2
  9
$LUPREC
 70
     4
  9
$AXISMODE
 70
     0
  9
$AXISUNIT
 10
0.0
 20
0.0
  9
$SKETCHINC
 40
1.0
  9
$FILLETRAD
 40
0.0
  9
$AUNITS
 70
     0
  9
$AUPREC
 70
     0
  9
$MENU
  1
acad
  9
$ELEVATION
 40
0.0
  9
$THICKNESS
 40
0.0
  9
$LIMCHECK
 70
     0
  9
$BLIPMODE
 70
     1
  9
$CHAMFERA
 40
0.0
  9
$CHAMFERB
 40
0.0
  9
$SKPOLY
 70
     0
  9
$TDCREATE
 40
2454916.37525463
  9
$TDUPDATE
 40
2454916.37525463
  9
$TDINDWG
 40
0.0
  9
$TDUSRTIMER
 40
0.0
  9
$USRTIMER
 70
     1
  9
$ANGBASE
 50
0.0
  9
$ANGDIR
 70
     0
  9
$PDMODE
 70
     0
  9
$PDSIZE
 40
0.0
  9
$PLINEWID
 40
0.0
  9
$COORDS
 70
     0
  9
$SPLFRAME
 70
     0
  9
$SPLINETYPE
 70
     6
  9
$SPLINESEGS
 70
     8
  9
$ATTDIA
 70
     0
  9
$ATTREQ
 70
     1
  9
$HANDLING
 70
     0
  9
$HANDSEED
  5
0
  9
$SURFTAB1
 70
     6
  9
$SURFTAB2
 70
     6
  9
$SURFTYPE
 70
     6
  9
$SURFU
 70
     6
  9
$SURFV
 70
     6
  9
$FLATLAND
 70
     0
  9
$UCSNAME
  2

  9
$UCSORG
 10
0.0
 20
0.0
 30
0.0
  9
$UCSXDIR
 10
1.0
 20
0.0
 30
0.0
  9
$UCSYDIR
 10
0.0
 20
1.0
 30
0.0
  9
$USERI1
 70
     0
  9
$USERI2
 70
     0
  9
$USERI3
 70
     0
  9
$USERI4
 70
     0
  9
$USERI5
 70
     0
  9
$USERR1
 40
0.0
  9
$USERR2
 40
0.0
  9
$USERR3
 40
0.0
  9
$USERR4
 40
0.0
  9
$USERR5
 40
0.0
  9
$WORLDVIEW
 70
     1
  0
ENDSEC
  0
SECTION
  2
TABLES
  0
TABLE
  2
VPORT
 70
     1
  0
VPORT
  2
*ACTIVE
 70
     0
 10
0.0
 20
0.0
 11
1.0
 21
1.0
 12
-46.0
 22
77.5546875
 13
0.0
 23
0.0
 14
0.0
 24
0.0
 15
0.0
 25
0.0
 16
0.0
 26
0.0
 36
1.0
 17
0.0
 27
0.0
 37
0.0
 40
201.109375
 41
1.5
 42
50.0
 43
0.0
 44
0.0
 50
0.0
 51
0.0
 71
     0
 72
   100
 73
     1
 74
     1
 75
     0
 76
     0
 77
     0
 78
     0
  0
ENDTAB
  0
TABLE
  2
LTYPE
 70
    20
  0
LTYPE
  2
CONTINUOUS
 70
    64
  3
solid line
 72
    65
 73
     0
 40
0.0
  0
LTYPE
  2
CENTER
 70
    64
  3
--- - --- - --- - --- - --- - 
 72
    65
 73
     4
 40
6.0
 49
3.0
 49
-1.0
 49
1.0
 49
-1.0
  0
ENDTAB
  0
TABLE
  2
LAYER
 70
    20
  0
LAYER
  2
0
 70
    64
 62
     7
  6
CONTINUOUS
  0
LAYER
  2
3
 70
    64
 62
     7
  6
CONTINUOUS
  0
LAYER
  2
14
 70
    64
 62
     7
  6
CONTINUOUS
  0
LAYER
  2
4
 70
    64
 62
     7
  6
CONTINUOUS
  0
LAYER
  2
DEFPOINTS
 70
     0
 62
    -7
  6
CONTINUOUS
  0
ENDTAB
  0
TABLE
  2
STYLE
 70
     4
  0
STYLE
  2
STANDARD
 70
    64
 40
0.0
 41
1.0
 50
0.0
 71
     0
 42
3.0
  3
txt
  4

  0
STYLE
  2
BIGFONT
 70
    64
 40
0.0
 41
1.0
 50
0.0
 71
     0
 42
3.0
  3
txt
  4
bigfont
  0
ENDTAB
  0
TABLE
  2
VIEW
 70
     0
  0
ENDTAB
  0
TABLE
  2
UCS
 70
     0
  0
ENDTAB
  0
TABLE
  2
DWGMGR
 70
     0
  0
ENDTAB
  0
ENDSEC
  0
SECTION
  2
BLOCKS
  0
BLOCK
  8
0
  2
*D1
 70
    65
 10
0.0
 20
0.0
  0
LINE
  8
0
  6
CONTINUOUS
 10
-6.138420104980469
 20
156.6443786621094
 11
-14.0
 21
168.0
  0
LINE
  8
0
  6
CONTINUOUS
 10
-14.0
 20
168.0
 11
-30.8125
 21
168.0
  0
LINE
  8
0
  6
CONTINUOUS
 10
-7.244784355163574
 20
159.5320129394531
 11
-6.138420104980469
 21
156.6443786621094
  0
LINE
  8
0
  6
CONTINUOUS
 10
-6.138420104980469
 20
156.6443786621094
 11
-8.473512649536133
 21
158.6716461181641
  0
TEXT
  8
0
  6
CONTINUOUS
 10
-29.8125
 20
174.109375
 30
0.0
 40
3.0
 41
0.7730263157894738
 50
0.0
 51
0.0
  7
STANDARD
 72
     0
  1
4-%%c4TH
  0
TEXT
  8
0
  6
CONTINUOUS
 10
-29.8125
 20
169.0
 30
0.0
 40
3.0
 41
0.8710526315789474
 50
0.0
 51
0.0
  7
BIGFONT
 72
     0
  1
φ６ランド
  0
POINT
  8
DEFPOINTS
  6
BYBLOCK
 62
     0
 10
-3.861580042339384
 20
153.3556156167124
  0
POINT
  8
DEFPOINTS
  6
BYBLOCK
 62
     0
 10
-6.138419957660616
 20
156.6443843832876
  0
ENDBLK
  8
3
  0
BLOCK
  8
0
  2
*D2
 70
    65
 10
0.0
 20
0.0
  0
LINE
  8
0
  6
CONTINUOUS
 10
14.0
 20
8.881784197001252E-016
 11
14.0
 21
-5.0
  0
LINE
  8
0
  6
CONTINUOUS
 10
13.24999713897705
 20
-2.999999284744263
 11
14.0
 21
0.0
  0
LINE
  8
0
  6
CONTINUOUS
 10
14.0
 20
0.0
 11
14.74999713897705
 21
-3.000000715255737
  0
LINE
  8
0
  6
CONTINUOUS
 10
14.0
 20
8.881784197001252E-016
 11
14.0
 21
2.5
  0
LINE
  8
0
  6
CONTINUOUS
 10
14.0
 20
5.0
 11
14.0
 21
2.5
  0
LINE
  8
0
  6
CONTINUOUS
 10
0.300000011920929
 20
1.903239522780193E-017
 11
16.0
 21
1.015061096462622E-015
  0
LINE
  8
0
  6
CONTINUOUS
 10
2.299999952316284
 20
5.0
 11
16.0
 21
5.0
  0
TEXT
  8
0
  6
CONTINUOUS
 10
13.0
 20
1.75000011920929
 30
0.0
 40
3.0
 41
0.7730263157894738
 50
90.0
 51
0.0
  7
STANDARD
 72
     0
  1
5
  0
POINT
  8
DEFPOINTS
  6
BYBLOCK
 62
     0
 10
0.0
 20
0.0
  0
POINT
  8
DEFPOINTS
  6
BYBLOCK
 62
     0
 10
2.0
 20
5.0
  0
POINT
  8
DEFPOINTS
  6
BYBLOCK
 62
     0
 10
14.0
 20
5.000000000000001
  0
ENDBLK
  8
3
  0
BLOCK
  8
0
  2
*D3
 70
    65
 10
0.0
 20
0.0
  0
LINE
  8
0
  6
CONTINUOUS
 10
14.0
 20
5.0
 11
14.0
 21
80.0
  0
LINE
  8
0
  6
CONTINUOUS
 10
14.75000095367432
 20
8.0
 11
14.0
 21
5.0
  0
LINE
  8
0
  6
CONTINUOUS
 10
14.0
 20
5.0
 11
13.25000095367432
 21
8.0
  0
LINE
  8
0
  6
CONTINUOUS
 10
14.0
 20
155.0
 11
14.0
 21
80.0
  0
LINE
  8
0
  6
CONTINUOUS
 10
13.24999713897705
 20
152.0
 11
14.0
 21
155.0
  0
LINE
  8
0
  6
CONTINUOUS
 10
14.0
 20
155.0
 11
14.74999713897705
 21
152.0
  0
LINE
  8
0
  6
CONTINUOUS
 10
2.299999952316284
 20
155.0
 11
16.0
 21
155.0
  0
TEXT
  8
0
  6
CONTINUOUS
 10
13.0
 20
77.046875
 30
0.0
 40
3.0
 41
0.7730263157894738
 50
90.0
 51
0.0
  7
STANDARD
 72
     0
  1
150
  0
POINT
  8
DEFPOINTS
  6
BYBLOCK
 62
     0
 10
2.0
 20
5.0
  0
POINT
  8
DEFPOINTS
  6
BYBLOCK
 62
     0
 10
2.0
 20
155.0
  0
POINT
  8
DEFPOINTS
  6
BYBLOCK
 62
     0
 10
14.0
 20
155.0
  0
ENDBLK
  8
3
  0
BLOCK
  8
0
  2
*D4
 70
    65
 10
0.0
 20
0.0
  0
LINE
  8
0
  6
CONTINUOUS
 10
21.0
 20
0.0
 11
21.0
 21
80.0
  0
LINE
  8
0
  6
CONTINUOUS
 10
21.75
 20
2.999999761581421
 11
21.0
 21
0.0
  0
LINE
  8
0
  6
CONTINUOUS
 10
21.0
 20
0.0
 11
20.25
 21
3.000000238418579
  0
LINE
  8
0
  6
CONTINUOUS
 10
21.0
 20
160.0
 11
21.0
 21
80.0
  0
LINE
  8
0
  6
CONTINUOUS
 10
20.24999809265137
 20
157.0
 11
21.0
 21
160.0
  0
LINE
  8
0
  6
CONTINUOUS
 10
21.0
 20
160.0
 11
21.74999809265137
 21
157.0
  0
LINE
  8
0
  6
CONTINUOUS
 10
0.300000011920929
 20
0.0
 11
23.0
 21
0.0
  0
LINE
  8
0
  6
CONTINUOUS
 10
0.300000011920929
 20
160.0
 11
23.0
 21
160.0
  0
TEXT
  8
0
  6
CONTINUOUS
 10
20.0
 20
77.046875
 30
0.0
 40
3.0
 41
0.7730263157894738
 50
90.0
 51
0.0
  7
STANDARD
 72
     0
  1
160
  0
POINT
  8
DEFPOINTS
  6
BYBLOCK
 62
     0
 10
0.0
 20
0.0
  0
POINT
  8
DEFPOINTS
  6
BYBLOCK
 62
     0
 10
0.0
 20
160.0
  0
POINT
  8
DEFPOINTS
  6
BYBLOCK
 62
     0
 10
21.0
 20
160.0
  0
ENDBLK
  8
3
  0
BLOCK
  8
0
  2
*D5
 70
    65
 10
0.0
 20
0.0
  0
LINE
  8
0
  6
CONTINUOUS
 10
-110.0
 20
-14.0
 11
-115.0
 21
-14.0
  0
LINE
  8
0
  6
CONTINUOUS
 10
-113.0
 20
-13.24999809265137
 11
-110.0
 21
-14.0
  0
LINE
  8
0
  6
CONTINUOUS
 10
-110.0
 20
-14.0
 11
-113.0
 21
-14.74999809265137
  0
LINE
  8
0
  6
CONTINUOUS
 10
-110.0
 20
-14.0
 11
-107.5
 21
-14.0
  0
LINE
  8
0
  6
CONTINUOUS
 10
-105.0
 20
-14.0
 11
-107.5
 21
-14.0
  0
LINE
  8
0
  6
CONTINUOUS
 10
-110.0
 20
-0.300000011920929
 11
-110.0
 21
-16.0
  0
LINE
  8
0
  6
CONTINUOUS
 10
-105.0
 20
-2.299999952316284
 11
-105.0
 21
-16.0
  0
TEXT
  8
0
  6
CONTINUOUS
 10
-108.25
 20
-13.0
 30
0.0
 40
3.0
 41
0.7730263157894738
 50
0.0
 51
0.0
  7
STANDARD
 72
     0
  1
5
  0
POINT
  8
DEFPOINTS
  6
BYBLOCK
 62
     0
 10
-110.0
 20
0.0
  0
POINT
  8
DEFPOINTS
  6
BYBLOCK
 62
     0
 10
-105.0
 20
-2.0
  0
POINT
  8
DEFPOINTS
  6
BYBLOCK
 62
     0
 10
-105.0
 20
-14.0
  0
ENDBLK
  8
3
  0
BLOCK
  8
0
  2
*D6
 70
    65
 10
0.0
 20
0.0
  0
LINE
  8
0
  6
CONTINUOUS
 10
-105.0
 20
-14.0
 11
-55.0
 21
-14.0
  0
LINE
  8
0
  6
CONTINUOUS
 10
-102.0
 20
-14.75
 11
-105.0
 21
-14.0
  0
LINE
  8
0
  6
CONTINUOUS
 10
-105.0
 20
-14.0
 11
-102.0
 21
-13.25
  0
LINE
  8
0
  6
CONTINUOUS
 10
-5.0
 20
-14.0
 11
-55.0
 21
-14.0
  0
LINE
  8
0
  6
CONTINUOUS
 10
-7.999999523162842
 20
-13.24999809265137
 11
-5.0
 21
-14.0
  0
LINE
  8
0
  6
CONTINUOUS
 10
-5.0
 20
-14.0
 11
-8.000000953674316
 21
-14.74999809265137
  0
LINE
  8
0
  6
CONTINUOUS
 10
-5.0
 20
-2.299999952316284
 11
-5.0
 21
-16.0
  0
TEXT
  8
0
  6
CONTINUOUS
 10
-57.953125
 20
-13.0
 30
0.0
 40
3.0
 41
0.7730263157894738
 50
0.0
 51
0.0
  7
STANDARD
 72
     0
  1
100
  0
POINT
  8
DEFPOINTS
  6
BYBLOCK
 62
     0
 10
-105.0
 20
-2.0
  0
POINT
  8
DEFPOINTS
  6
BYBLOCK
 62
     0
 10
-5.0
 20
-2.0
  0
POINT
  8
DEFPOINTS
  6
BYBLOCK
 62
     0
 10
-5.0
 20
-14.0
  0
ENDBLK
  8
3
  0
BLOCK
  8
0
  2
*D7
 70
    65
 10
0.0
 20
0.0
  0
LINE
  8
0
  6
CONTINUOUS
 10
-110.0
 20
-21.0
 11
-55.0
 21
-21.0
  0
LINE
  8
0
  6
CONTINUOUS
 10
-107.0
 20
-21.75
 11
-110.0
 21
-21.0
  0
LINE
  8
0
  6
CONTINUOUS
 10
-110.0
 20
-21.0
 11
-107.0
 21
-20.25
  0
LINE
  8
0
  6
CONTINUOUS
 10
0.0
 20
-21.0
 11
-55.0
 21
-21.0
  0
LINE
  8
0
  6
CONTINUOUS
 10
-2.999999523162842
 20
-20.24999809265137
 11
0.0
 21
-21.0
  0
LINE
  8
0
  6
CONTINUOUS
 10
0.0
 20
-21.0
 11
-3.000000476837158
 21
-21.74999809265137
  0
LINE
  8
0
  6
CONTINUOUS
 10
-110.0
 20
-0.300000011920929
 11
-110.0
 21
-23.0
  0
LINE
  8
0
  6
CONTINUOUS
 10
0.0
 20
-0.300000011920929
 11
0.0
 21
-23.0
  0
TEXT
  8
0
  6
CONTINUOUS
 10
-57.953125
 20
-20.0
 30
0.0
 40
3.0
 41
0.7730263157894738
 50
0.0
 51
0.0
  7
STANDARD
 72
     0
  1
110
  0
POINT
  8
DEFPOINTS
  6
BYBLOCK
 62
     0
 10
-110.0
 20
0.0
  0
POINT
  8
DEFPOINTS
  6
BYBLOCK
 62
     0
 10
0.0
 20
0.0
  0
POINT
  8
DEFPOINTS
  6
BYBLOCK
 62
     0
 10
0.0
 20
-21.0
  0
ENDBLK
  8
3
  0
BLOCK
  8
4
  2
COMP1
 70
    64
 10
0.0
 20
0.0
  0
POLYLINE
  8
4
  6
CONTINUOUS
 66
     1
 70
     0
 40
0.0
 41
0.0
  0
VERTEX
  8
4
 10
-102.9099426269531
 20
144.9912109375
  0
VERTEX
  8
4
 10
-103.9099426269531
 20
144.9912109375
  0
VERTEX
  8
4
 10
-103.6130676269531
 20
144.8193359375
  0
SEQEND
  8
4
  0
ENDBLK
  8
4
  0
BLOCK
  8
4
  2
COMP2
 70
    64
 10
0.0
 20
0.0
  0
POLYLINE
  8
4
  6
CONTINUOUS
 66
     1
 70
     0
 40
0.0
 41
0.0
  0
VERTEX
  8
4
 10
-103.8666152954102
 20
135.9363098144531
 42
0.875
  0
VERTEX
  8
4
 10
-103.8666152954102
 20
135.4363098144531
  0
VERTEX
  8
4
 10
-103.2728652954102
 20
135.4363098144531
 42
0.7500000000000001
  0
VERTEX
  8
4
 10
-103.2728652954102
 20
135.9363098144531
  0
SEQEND
  8
4
  0
POLYLINE
  8
4
  6
CONTINUOUS
 66
     1
 70
     0
 40
0.0
 41
0.0
  0
VERTEX
  8
4
 10
-103.0853652954102
 20
136.1706848144531
  0
VERTEX
  8
4
 10
-104.0853652954102
 20
136.1706848144531
  0
VERTEX
  8
4
 10
-103.0853652954102
 20
136.6706848144531
  0
VERTEX
  8
4
 10
-104.0853652954102
 20
136.6706848144531
  0
SEQEND
  8
4
  0
POLYLINE
  8
4
  6
CONTINUOUS
 66
     1
 70
     0
 40
0.0
 41
0.0
  0
VERTEX
  8
4
 10
-103.0853652954102
 20
137.1550598144531
  0
VERTEX
  8
4
 10
-104.0853652954102
 20
137.1550598144531
  0
VERTEX
  8
4
 10
-103.7884902954102
 20
136.9831848144531
  0
SEQEND
  8
4
  0
ENDBLK
  8
4
  0
BLOCK
  8
4
  2
COMP3
 70
    64
 10
0.0
 20
0.0
  0
POLYLINE
  8
4
  6
CONTINUOUS
 66
     1
 70
     0
 40
0.0
 41
0.0
  0
VERTEX
  8
4
 10
-103.8102264404297
 20
127.6593170166016
  0
VERTEX
  8
4
 10
-103.6852264404297
 20
127.7843170166016
  0
VERTEX
  8
4
 10
-103.4352264404297
 20
127.7843170166016
  0
VERTEX
  8
4
 10
-103.3414764404297
 20
127.6593170166016
  0
VERTEX
  8
4
 10
-103.3414764404297
 20
127.4718170166016
  0
VERTEX
  8
4
 10
-103.4352264404297
 20
127.3468170166016
  0
VERTEX
  8
4
 10
-103.6852264404297
 20
127.3468170166016
  0
VERTEX
  8
4
 10
-103.8102264404297
 20
127.4718170166016
  0
VERTEX
  8
4
 10
-103.8102264404297
 20
127.6593170166016
  0
SEQEND
  8
4
  0
POLYLINE
  8
4
  6
CONTINUOUS
 66
     1
 70
     0
 40
0.0
 41
0.0
  0
VERTEX
  8
4
 10
-103.3414764404297
 20
127.4718170166016
  0
VERTEX
  8
4
 10
-103.2164764404297
 20
127.3155670166016
  0
VERTEX
  8
4
 10
-102.9664764404297
 20
127.3155670166016
  0
VERTEX
  8
4
 10
-102.8102264404297
 20
127.4718170166016
  0
VERTEX
  8
4
 10
-102.8102264404297
 20
127.6593170166016
  0
VERTEX
  8
4
 10
-102.9664764404297
 20
127.8155670166016
  0
VERTEX
  8
4
 10
-103.2164764404297
 20
127.8155670166016
  0
VERTEX
  8
4
 10
-103.3414764404297
 20
127.6593170166016
  0
SEQEND
  8
4
  0
ENDBLK
  8
4
  0
BLOCK
  8
4
  2
COMP4
 70
    64
 10
0.0
 20
0.0
  0
POLYLINE
  8
4
  6
CONTINUOUS
 66
     1
 70
     0
 40
0.0
 41
0.0
  0
VERTEX
  8
4
 10
-6.034342288970947
 20
145.2654266357422
  0
VERTEX
  8
4
 10
-7.034342288970947
 20
145.2654266357422
  0
VERTEX
  8
4
 10
-6.737467288970947
 20
145.0935516357422
  0
SEQEND
  8
4
  0
POLYLINE
  8
4
  6
CONTINUOUS
 66
     1
 70
     0
 40
0.0
 41
0.0
  0
VERTEX
  8
4
 10
-6.846842288970947
 20
145.7498016357422
  0
VERTEX
  8
4
 10
-7.034342288970947
 20
145.9060516357422
  0
VERTEX
  8
4
 10
-7.034342288970947
 20
146.0935516357422
  0
VERTEX
  8
4
 10
-6.846842288970947
 20
146.2498016357422
  0
VERTEX
  8
4
 10
-6.596842288970947
 20
146.2498016357422
  0
VERTEX
  8
4
 10
-6.159342288970947
 20
145.7498016357422
  0
VERTEX
  8
4
 10
-6.034342288970947
 20
145.7498016357422
  0
VERTEX
  8
4
 10
-6.034342288970947
 20
146.2498016357422
  0
SEQEND
  8
4
  0
ENDBLK
  8
4
  0
BLOCK
  8
4
  2
COMP5
 70
    64
 10
0.0
 20
0.0
  0
POLYLINE
  8
4
  6
CONTINUOUS
 66
     1
 70
     0
 40
0.0
 41
0.0
  0
VERTEX
  8
4
 10
-6.034342288970947
 20
130.9808959960938
  0
VERTEX
  8
4
 10
-7.034342288970947
 20
130.9808959960938
  0
VERTEX
  8
4
 10
-6.737467288970947
 20
130.8090209960938
  0
SEQEND
  8
4
  0
ENDBLK
  8
4
  0
BLOCK
  8
4
  2
COMP6
 70
    64
 10
0.0
 20
0.0
  0
POLYLINE
  8
4
  6
CONTINUOUS
 66
     1
 70
     0
 40
0.0
 41
0.0
  0
VERTEX
  8
4
 10
-1.038290143013001
 20
138.0573883056641
 42
0.875
  0
VERTEX
  8
4
 10
-1.038290143013001
 20
137.5573883056641
  0
VERTEX
  8
4
 10
-0.4445401430130005
 20
137.5573883056641
 42
0.7500000000000001
  0
VERTEX
  8
4
 10
-0.4445401430130005
 20
138.0573883056641
  0
SEQEND
  8
4
  0
POLYLINE
  8
4
  6
CONTINUOUS
 66
     1
 70
     0
 40
0.0
 41
0.0
  0
VERTEX
  8
4
 10
-0.2570401430130005
 20
138.2917633056641
  0
VERTEX
  8
4
 10
-1.257040143013001
 20
138.2917633056641
  0
VERTEX
  8
4
 10
-0.2570401430130005
 20
138.7917633056641
  0
VERTEX
  8
4
 10
-1.257040143013001
 20
138.7917633056641
  0
SEQEND
  8
4
  0
POLYLINE
  8
4
  6
CONTINUOUS
 66
     1
 70
     0
 40
0.0
 41
0.0
  0
VERTEX
  8
4
 10
-1.069540143013001
 20
139.0261383056641
  0
VERTEX
  8
4
 10
-1.257040143013001
 20
139.1823883056641
  0
VERTEX
  8
4
 10
-1.257040143013001
 20
139.3698883056641
  0
VERTEX
  8
4
 10
-1.069540143013001
 20
139.5261383056641
  0
VERTEX
  8
4
 10
-0.9132901430130005
 20
139.5261383056641
  0
VERTEX
  8
4
 10
-0.7570401430130005
 20
139.3386383056641
  0
VERTEX
  8
4
 10
-0.7570401430130005
 20
139.1511383056641
  0
SEQEND
  8
4
  0
POLYLINE
  8
4
  6
CONTINUOUS
 66
     1
 70
     0
 40
0.0
 41
0.0
  0
VERTEX
  8
4
 10
-0.7570401430130005
 20
139.3386383056641
  0
VERTEX
  8
4
 10
-0.5695401430130005
 20
139.5261383056641
  0
VERTEX
  8
4
 10
-0.4132901430130005
 20
139.5261383056641
  0
VERTEX
  8
4
 10
-0.2570401430130005
 20
139.3698883056641
  0
VERTEX
  8
4
 10
-0.2570401430130005
 20
139.1823883056641
  0
VERTEX
  8
4
 10
-0.4132901430130005
 20
139.0261383056641
  0
SEQEND
  8
4
  0
ENDBLK
  8
4
  0
BLOCK
  8
4
  2
COMP7
 70
    64
 10
0.0
 20
0.0
  0
POLYLINE
  8
4
  6
CONTINUOUS
 66
     1
 70
     0
 40
0.0
 41
0.0
  0
VERTEX
  8
4
 10
-12.51303577423096
 20
68.23467254638672
 42
0.3601112293825256
  0
VERTEX
  8
4
 10
-12.76303577423096
 20
68.42217254638672
 42
0.3984820267298111
  0
VERTEX
  8
4
 10
-13.01303577423096
 20
68.20342254638672
 42
0.4141941447448176
  0
VERTEX
  8
4
 10
-12.76303577423096
 20
67.92217254638672
 42
-0.3750000000000001
  0
VERTEX
  8
4
 10
-12.51303577423096
 20
67.67217254638672
 42
-0.4832088998274537
  0
VERTEX
  8
4
 10
-12.74741077423096
 20
67.42217254638672
 42
-0.3193902028869962
  0
VERTEX
  8
4
 10
-13.01303577423096
 20
67.60967254638672
  0
SEQEND
  8
4
  0
POLYLINE
  8
4
  6
CONTINUOUS
 66
     1
 70
     0
 40
0.0
 41
0.0
  0
VERTEX
  8
4
 10
-11.77866077423096
 20
68.42217254638672
  0
VERTEX
  8
4
 10
-11.90366077423096
 20
67.42217254638672
  0
VERTEX
  8
4
 10
-12.02866077423096
 20
68.39092254638672
  0
VERTEX
  8
4
 10
-12.15366077423096
 20
67.42217254638672
  0
VERTEX
  8
4
 10
-12.27866077423096
 20
68.42217254638672
  0
SEQEND
  8
4
  0
POLYLINE
  8
4
  6
CONTINUOUS
 66
     1
 70
     0
 40
0.0
 41
0.0
  0
VERTEX
  8
4
 10
-11.54428577423096
 20
68.23467254638672
  0
VERTEX
  8
4
 10
-11.38803577423096
 20
68.42217254638672
  0
VERTEX
  8
4
 10
-11.20053577423096
 20
68.42217254638672
  0
VERTEX
  8
4
 10
-11.04428577423096
 20
68.23467254638672
  0
VERTEX
  8
4
 10
-11.04428577423096
 20
68.07842254638672
  0
VERTEX
  8
4
 10
-11.23178577423096
 20
67.92217254638672
  0
VERTEX
  8
4
 10
-11.41928577423096
 20
67.92217254638672
  0
SEQEND
  8
4
  0
POLYLINE
  8
4
  6
CONTINUOUS
 66
     1
 70
     0
 40
0.0
 41
0.0
  0
VERTEX
  8
4
 10
-11.23178577423096
 20
67.92217254638672
  0
VERTEX
  8
4
 10
-11.04428577423096
 20
67.73467254638672
  0
VERTEX
  8
4
 10
-11.04428577423096
 20
67.57842254638672
  0
VERTEX
  8
4
 10
-11.20053577423096
 20
67.42217254638672
  0
VERTEX
  8
4
 10
-11.38803577423096
 20
67.42217254638672
  0
VERTEX
  8
4
 10
-11.54428577423096
 20
67.57842254638672
  0
SEQEND
  8
4
  0
POLYLINE
  8
4
  6
CONTINUOUS
 66
     1
 70
     0
 40
0.0
 41
0.0
  0
VERTEX
  8
4
 10
-13.74741077423096
 20
65.71904754638672
  0
VERTEX
  8
4
 10
-13.49741077423096
 20
66.71904754638672
  0
VERTEX
  8
4
 10
-13.24741077423096
 20
65.71904754638672
  0
SEQEND
  8
4
  0
POLYLINE
  8
4
  6
CONTINUOUS
 66
     1
 70
     0
 40
0.0
 41
0.0
  0
VERTEX
  8
4
 10
-13.32553577423096
 20
66.03154754638672
  0
VERTEX
  8
4
 10
-13.66928577423096
 20
66.03154754638672
  0
SEQEND
  8
4
  0
POLYLINE
  8
4
  6
CONTINUOUS
 66
     1
 70
     0
 40
0.0
 41
0.0
  0
VERTEX
  8
4
 10
-13.01303577423096
 20
65.71904754638672
  0
VERTEX
  8
4
 10
-12.51303577423096
 20
66.71904754638672
  0
SEQEND
  8
4
  0
POLYLINE
  8
4
  6
CONTINUOUS
 66
     1
 70
     0
 40
0.0
 41
0.0
  0
VERTEX
  8
4
 10
-12.27866077423096
 20
66.71904754638672
  0
VERTEX
  8
4
 10
-11.77866077423096
 20
66.71904754638672
  0
VERTEX
  8
4
 10
-12.27866077423096
 20
65.71904754638672
  0
VERTEX
  8
4
 10
-11.77866077423096
 20
65.71904754638672
  0
SEQEND
  8
4
  0
POLYLINE
  8
4
  6
CONTINUOUS
 66
     1
 70
     0
 40
0.0
 41
0.0
  0
VERTEX
  8
4
 10
-10.80991077423096
 20
66.50029754638672
  0
VERTEX
  8
4
 10
-10.80991077423096
 20
65.90654754638672
 42
0.7500000000000001
  0
VERTEX
  8
4
 10
-10.30991077423096
 20
65.90654754638672
  0
VERTEX
  8
4
 10
-10.30991077423096
 20
66.50029754638672
 42
0.875
  0
VERTEX
  8
4
 10
-10.80991077423096
 20
66.50029754638672
  0
SEQEND
  8
4
  0
POLYLINE
  8
4
  6
CONTINUOUS
 66
     1
 70
     0
 40
0.0
 41
0.0
  0
VERTEX
  8
4
 10
-10.07553577423096
 20
65.71904754638672
  0
VERTEX
  8
4
 10
-10.07553577423096
 20
66.71904754638672
  0
VERTEX
  8
4
 10
-9.575535774230957
 20
65.71904754638672
  0
VERTEX
  8
4
 10
-9.575535774230957
 20
66.71904754638672
  0
SEQEND
  8
4
  0
ENDBLK
  8
4
  0
BLOCK
  8
4
  2
COMP8
 70
    64
 10
0.0
 20
0.0
  0
POLYLINE
  8
4
  6
CONTINUOUS
 66
     1
 70
     0
 40
0.0
 41
0.0
  0
VERTEX
  8
4
 10
-20.75323677062988
 20
68.20843505859375
 42
0.3601112293825256
  0
VERTEX
  8
4
 10
-21.00323677062988
 20
68.39593505859375
 42
0.3984820267298111
  0
VERTEX
  8
4
 10
-21.25323677062988
 20
68.17718505859375
 42
0.4141941447448176
  0
VERTEX
  8
4
 10
-21.00323677062988
 20
67.89593505859375
 42
-0.3750000000000001
  0
VERTEX
  8
4
 10
-20.75323677062988
 20
67.64593505859375
 42
-0.4832111208844978
  0
VERTEX
  8
4
 10
-20.98761177062988
 20
67.39593505859375
 42
-0.3193951166154045
  0
VERTEX
  8
4
 10
-21.25323677062988
 20
67.58343505859375
  0
SEQEND
  8
4
  0
POLYLINE
  8
4
  6
CONTINUOUS
 66
     1
 70
     0
 40
0.0
 41
0.0
  0
VERTEX
  8
4
 10
-20.01886177062988
 20
68.39593505859375
  0
VERTEX
  8
4
 10
-20.14386177062988
 20
67.39593505859375
  0
VERTEX
  8
4
 10
-20.26886177062988
 20
68.36468505859375
  0
VERTEX
  8
4
 10
-20.39386177062988
 20
67.39593505859375
  0
VERTEX
  8
4
 10
-20.51886177062988
 20
68.39593505859375
  0
SEQEND
  8
4
  0
POLYLINE
  8
4
  6
CONTINUOUS
 66
     1
 70
     0
 40
0.0
 41
0.0
  0
VERTEX
  8
4
 10
-19.53448677062988
 20
68.39593505859375
  0
VERTEX
  8
4
 10
-19.78448677062988
 20
67.70843505859375
  0
VERTEX
  8
4
 10
-19.28448677062988
 20
67.70843505859375
  0
SEQEND
  8
4
  0
POLYLINE
  8
4
  6
CONTINUOUS
 66
     1
 70
     0
 40
0.0
 41
0.0
  0
VERTEX
  8
4
 10
-19.44073677062988
 20
67.39593505859375
  0
VERTEX
  8
4
 10
-19.44073677062988
 20
68.05218505859375
  0
SEQEND
  8
4
  0
POLYLINE
  8
4
  6
CONTINUOUS
 66
     1
 70
     0
 40
0.0
 41
0.0
  0
VERTEX
  8
4
 10
-22.72198677062988
 20
65.69281005859375
  0
VERTEX
  8
4
 10
-22.47198677062988
 20
66.69281005859375
  0
VERTEX
  8
4
 10
-22.22198677062988
 20
65.69281005859375
  0
SEQEND
  8
4
  0
POLYLINE
  8
4
  6
CONTINUOUS
 66
     1
 70
     0
 40
0.0
 41
0.0
  0
VERTEX
  8
4
 10
-22.30011177062988
 20
66.00531005859375
  0
VERTEX
  8
4
 10
-22.64386177062988
 20
66.00531005859375
  0
SEQEND
  8
4
  0
POLYLINE
  8
4
  6
CONTINUOUS
 66
     1
 70
     0
 40
0.0
 41
0.0
  0
VERTEX
  8
4
 10
-21.98761177062988
 20
65.69281005859375
  0
VERTEX
  8
4
 10
-21.48761177062988
 20
66.69281005859375
  0
SEQEND
  8
4
  0
POLYLINE
  8
4
  6
CONTINUOUS
 66
     1
 70
     0
 40
0.0
 41
0.0
  0
VERTEX
  8
4
 10
-21.25323677062988
 20
66.69281005859375
  0
VERTEX
  8
4
 10
-20.75323677062988
 20
66.69281005859375
  0
VERTEX
  8
4
 10
-21.25323677062988
 20
65.69281005859375
  0
VERTEX
  8
4
 10
-20.75323677062988
 20
65.69281005859375
  0
SEQEND
  8
4
  0
POLYLINE
  8
4
  6
CONTINUOUS
 66
     1
 70
     0
 40
0.0
 41
0.0
  0
VERTEX
  8
4
 10
-19.78448677062988
 20
66.47406005859375
  0
VERTEX
  8
4
 10
-19.78448677062988
 20
65.88031005859375
 42
0.7500000000000001
  0
VERTEX
  8
4
 10
-19.28448677062988
 20
65.88031005859375
  0
VERTEX
  8
4
 10
-19.28448677062988
 20
66.47406005859375
 42
0.875
  0
VERTEX
  8
4
 10
-19.78448677062988
 20
66.47406005859375
  0
SEQEND
  8
4
  0
POLYLINE
  8
4
  6
CONTINUOUS
 66
     1
 70
     0
 40
0.0
 41
0.0
  0
VERTEX
  8
4
 10
-18.55011177062988
 20
66.69281005859375
  0
VERTEX
  8
4
 10
-19.05011177062988
 20
66.69281005859375
  0
VERTEX
  8
4
 10
-19.05011177062988
 20
65.69281005859375
  0
SEQEND
  8
4
  0
POLYLINE
  8
4
  6
CONTINUOUS
 66
     1
 70
     0
 40
0.0
 41
0.0
  0
VERTEX
  8
4
 10
-19.05011177062988
 20
66.19281005859375
  0
VERTEX
  8
4
 10
-18.61261177062988
 20
66.19281005859375
  0
SEQEND
  8
4
  0
POLYLINE
  8
4
  6
CONTINUOUS
 66
     1
 70
     0
 40
0.0
 41
0.0
  0
VERTEX
  8
4
 10
-17.81573677062988
 20
66.69281005859375
  0
VERTEX
  8
4
 10
-18.31573677062988
 20
66.69281005859375
  0
VERTEX
  8
4
 10
-18.31573677062988
 20
65.69281005859375
  0
SEQEND
  8
4
  0
POLYLINE
  8
4
  6
CONTINUOUS
 66
     1
 70
     0
 40
0.0
 41
0.0
  0
VERTEX
  8
4
 10
-18.31573677062988
 20
66.19281005859375
  0
VERTEX
  8
4
 10
-17.87823677062988
 20
66.19281005859375
  0
SEQEND
  8
4
  0
ENDBLK
  8
4
  0
BLOCK
  8
4
  2
COMP9
 70
    64
 10
0.0
 20
0.0
  0
POLYLINE
  8
4
  6
CONTINUOUS
 66
     1
 70
     0
 40
0.0
 41
0.0
  0
VERTEX
  8
4
 10
-25.91206932067871
 20
46.44458389282227
  0
VERTEX
  8
4
 10
-26.41206932067871
 20
46.44458389282227
  0
SEQEND
  8
4
  0
POLYLINE
  8
4
  6
CONTINUOUS
 66
     1
 70
     0
 40
0.0
 41
0.0
  0
VERTEX
  8
4
 10
-26.16206932067871
 20
46.19458389282227
  0
VERTEX
  8
4
 10
-26.16206932067871
 20
46.69458389282227
  0
SEQEND
  8
4
  0
POLYLINE
  8
4
  6
CONTINUOUS
 66
     1
 70
     0
 40
0.0
 41
0.0
  0
VERTEX
  8
4
 10
-24.20894432067871
 20
46.44458389282227
  0
VERTEX
  8
4
 10
-23.95894432067871
 20
46.44458389282227
 42
0.4142135623731064
  0
VERTEX
  8
4
 10
-23.70894432067871
 20
46.69458389282227
 42
0.4142135623731064
  0
VERTEX
  8
4
 10
-23.95894432067871
 20
46.94458389282227
  0
VERTEX
  8
4
 10
-24.20894432067871
 20
46.94458389282227
  0
VERTEX
  8
4
 10
-24.20894432067871
 20
45.94458389282227
  0
SEQEND
  8
4
  0
POLYLINE
  8
4
  6
CONTINUOUS
 66
     1
 70
     0
 40
0.0
 41
0.0
  0
VERTEX
  8
4
 10
-23.47456932067871
 20
46.72583389282227
  0
VERTEX
  8
4
 10
-23.47456932067871
 20
46.13208389282227
 42
0.7500000000000001
  0
VERTEX
  8
4
 10
-22.97456932067871
 20
46.13208389282227
  0
VERTEX
  8
4
 10
-22.97456932067871
 20
46.72583389282227
 42
0.875
  0
VERTEX
  8
4
 10
-23.47456932067871
 20
46.72583389282227
  0
SEQEND
  8
4
  0
POLYLINE
  8
4
  6
CONTINUOUS
 66
     1
 70
     0
 40
0.0
 41
0.0
  0
VERTEX
  8
4
 10
-22.74019432067871
 20
46.94458389282227
  0
VERTEX
  8
4
 10
-22.74019432067871
 20
45.94458389282227
  0
VERTEX
  8
4
 10
-22.24019432067871
 20
45.94458389282227
  0
SEQEND
  8
4
  0
POLYLINE
  8
4
  6
CONTINUOUS
 66
     1
 70
     0
 40
0.0
 41
0.0
  0
VERTEX
  8
4
 10
-21.81831932067871
 20
45.97583389282227
  0
VERTEX
  8
4
 10
-21.81831932067871
 20
46.06958389282227
  0
VERTEX
  8
4
 10
-21.70894432067871
 20
46.06958389282227
  0
VERTEX
  8
4
 10
-21.70894432067871
 20
45.97583389282227
  0
VERTEX
  8
4
 10
-21.81831932067871
 20
45.97583389282227
  0
SEQEND
  8
4
  0
POLYLINE
  8
4
  6
CONTINUOUS
 66
     1
 70
     0
 40
0.0
 41
0.0
  0
VERTEX
  8
4
 10
-19.33394432067871
 20
46.44458389282227
  0
VERTEX
  8
4
 10
-19.77144432067871
 20
46.44458389282227
  0
SEQEND
  8
4
  0
ENDBLK
  8
4
  0
BLOCK
  8
4
  2
COMP10
 70
    64
 10
0.0
 20
0.0
  0
POLYLINE
  8
4
  6
CONTINUOUS
 66
     1
 70
     0
 40
0.0
 41
0.0
  0
VERTEX
  8
4
 10
-26.08640289306641
 20
40.84287261962891
  0
VERTEX
  8
4
 10
-26.33640289306641
 20
39.84287261962891
  0
VERTEX
  8
4
 10
-26.58640289306641
 20
40.84287261962891
  0
SEQEND
  8
4
  0
POLYLINE
  8
4
  6
CONTINUOUS
 66
     1
 70
     0
 40
0.0
 41
0.0
  0
VERTEX
  8
4
 10
-25.85202789306641
 20
40.34287261962891
  0
VERTEX
  8
4
 10
-25.60202789306641
 20
40.34287261962891
 42
0.4142135623731064
  0
VERTEX
  8
4
 10
-25.35202789306641
 20
40.59287261962891
 42
0.4142135623731064
  0
VERTEX
  8
4
 10
-25.60202789306641
 20
40.84287261962891
  0
VERTEX
  8
4
 10
-25.85202789306641
 20
40.84287261962891
  0
VERTEX
  8
4
 10
-25.85202789306641
 20
39.84287261962891
  0
SEQEND
  8
4
  0
POLYLINE
  8
4
  6
CONTINUOUS
 66
     1
 70
     0
 40
0.0
 41
0.0
  0
VERTEX
  8
4
 10
-25.35202789306641
 20
39.84287261962891
  0
VERTEX
  8
4
 10
-25.60202789306641
 20
40.34287261962891
  0
SEQEND
  8
4
  0
POLYLINE
  8
4
  6
CONTINUOUS
 66
     1
 70
     0
 40
0.0
 41
0.0
  0
VERTEX
  8
4
 10
-25.11765289306641
 20
40.65537261962891
  0
VERTEX
  8
4
 10
-24.96140289306641
 20
40.84287261962891
  0
VERTEX
  8
4
 10
-24.77390289306641
 20
40.84287261962891
  0
VERTEX
  8
4
 10
-24.61765289306641
 20
40.65537261962891
  0
VERTEX
  8
4
 10
-24.61765289306641
 20
40.49912261962891
  0
VERTEX
  8
4
 10
-24.80515289306641
 20
40.34287261962891
  0
VERTEX
  8
4
 10
-24.99265289306641
 20
40.34287261962891
  0
SEQEND
  8
4
  0
POLYLINE
  8
4
  6
CONTINUOUS
 66
     1
 70
     0
 40
0.0
 41
0.0
  0
VERTEX
  8
4
 10
-24.80515289306641
 20
40.34287261962891
  0
VERTEX
  8
4
 10
-24.61765289306641
 20
40.15537261962891
  0
VERTEX
  8
4
 10
-24.61765289306641
 20
39.99912261962891
  0
VERTEX
  8
4
 10
-24.77390289306641
 20
39.84287261962891
  0
VERTEX
  8
4
 10
-24.96140289306641
 20
39.84287261962891
  0
VERTEX
  8
4
 10
-25.11765289306641
 20
39.99912261962891
  0
SEQEND
  8
4
  0
POLYLINE
  8
4
  6
CONTINUOUS
 66
     1
 70
     0
 40
0.0
 41
0.0
  0
VERTEX
  8
4
 10
-23.14890289306641
 20
40.84287261962891
  0
VERTEX
  8
4
 10
-23.64890289306641
 20
40.84287261962891
  0
VERTEX
  8
4
 10
-23.64890289306641
 20
39.84287261962891
  0
SEQEND
  8
4
  0
POLYLINE
  8
4
  6
CONTINUOUS
 66
     1
 70
     0
 40
0.0
 41
0.0
  0
VERTEX
  8
4
 10
-23.64890289306641
 20
40.34287261962891
  0
VERTEX
  8
4
 10
-23.21140289306641
 20
40.34287261962891
  0
SEQEND
  8
4
  0
POLYLINE
  8
4
  6
CONTINUOUS
 66
     1
 70
     0
 40
0.0
 41
0.0
  0
VERTEX
  8
4
 10
-22.44577789306641
 20
40.34287261962891
  0
VERTEX
  8
4
 10
-22.88327789306641
 20
40.34287261962891
  0
SEQEND
  8
4
  0
POLYLINE
  8
4
  6
CONTINUOUS
 66
     1
 70
     0
 40
0.0
 41
0.0
  0
VERTEX
  8
4
 10
-22.18015289306641
 20
40.84287261962891
  0
VERTEX
  8
4
 10
-21.68015289306641
 20
40.84287261962891
  0
VERTEX
  8
4
 10
-22.18015289306641
 20
39.84287261962891
  0
VERTEX
  8
4
 10
-21.68015289306641
 20
39.84287261962891
  0
SEQEND
  8
4
  0
POLYLINE
  8
4
  6
CONTINUOUS
 66
     1
 70
     0
 40
0.0
 41
0.0
  0
VERTEX
  8
4
 10
-20.94577789306641
 20
40.84287261962891
  0
VERTEX
  8
4
 10
-21.44577789306641
 20
40.84287261962891
  0
VERTEX
  8
4
 10
-21.44577789306641
 20
39.84287261962891
  0
VERTEX
  8
4
 10
-20.94577789306641
 20
39.84287261962891
  0
SEQEND
  8
4
  0
POLYLINE
  8
4
  6
CONTINUOUS
 66
     1
 70
     0
 40
0.0
 41
0.0
  0
VERTEX
  8
4
 10
-21.44577789306641
 20
40.34287261962891
  0
VERTEX
  8
4
 10
-20.94577789306641
 20
40.34287261962891
  0
SEQEND
  8
4
  0
POLYLINE
  8
4
  6
CONTINUOUS
 66
     1
 70
     0
 40
0.0
 41
0.0
  0
VERTEX
  8
4
 10
-20.71140289306641
 20
40.34287261962891
  0
VERTEX
  8
4
 10
-20.46140289306641
 20
40.34287261962891
 42
0.4142135623731064
  0
VERTEX
  8
4
 10
-20.21140289306641
 20
40.59287261962891
 42
0.4142135623731064
  0
VERTEX
  8
4
 10
-20.46140289306641
 20
40.84287261962891
  0
VERTEX
  8
4
 10
-20.71140289306641
 20
40.84287261962891
  0
VERTEX
  8
4
 10
-20.71140289306641
 20
39.84287261962891
  0
SEQEND
  8
4
  0
POLYLINE
  8
4
  6
CONTINUOUS
 66
     1
 70
     0
 40
0.0
 41
0.0
  0
VERTEX
  8
4
 10
-20.21140289306641
 20
39.84287261962891
  0
VERTEX
  8
4
 10
-20.46140289306641
 20
40.34287261962891
  0
SEQEND
  8
4
  0
POLYLINE
  8
4
  6
CONTINUOUS
 66
     1
 70
     0
 40
0.0
 41
0.0
  0
VERTEX
  8
4
 10
-19.97702789306641
 20
40.62412261962891
  0
VERTEX
  8
4
 10
-19.97702789306641
 20
40.03037261962891
 42
0.7500000000000001
  0
VERTEX
  8
4
 10
-19.47702789306641
 20
40.03037261962891
  0
VERTEX
  8
4
 10
-19.47702789306641
 20
40.62412261962891
 42
0.875
  0
VERTEX
  8
4
 10
-19.97702789306641
 20
40.62412261962891
  0
SEQEND
  8
4
  0
ENDBLK
  8
4
  0
BLOCK
  8
4
  2
COMP11
 70
    64
 10
0.0
 20
0.0
  0
POLYLINE
  8
4
  6
CONTINUOUS
 66
     1
 70
     0
 40
0.0
 41
0.0
  0
VERTEX
  8
4
 10
-30.04309844970703
 20
31.79536819458008
  0
VERTEX
  8
4
 10
-30.29309844970703
 20
30.79536819458008
  0
VERTEX
  8
4
 10
-30.54309844970703
 20
31.79536819458008
  0
SEQEND
  8
4
  0
POLYLINE
  8
4
  6
CONTINUOUS
 66
     1
 70
     0
 40
0.0
 41
0.0
  0
VERTEX
  8
4
 10
-29.80872344970703
 20
31.29536819458008
  0
VERTEX
  8
4
 10
-29.55872344970703
 20
31.29536819458008
 42
0.4142135623731064
  0
VERTEX
  8
4
 10
-29.30872344970703
 20
31.54536819458008
 42
0.4142135623731064
  0
VERTEX
  8
4
 10
-29.55872344970703
 20
31.79536819458008
  0
VERTEX
  8
4
 10
-29.80872344970703
 20
31.79536819458008
  0
VERTEX
  8
4
 10
-29.80872344970703
 20
30.79536819458008
  0
SEQEND
  8
4
  0
POLYLINE
  8
4
  6
CONTINUOUS
 66
     1
 70
     0
 40
0.0
 41
0.0
  0
VERTEX
  8
4
 10
-29.30872344970703
 20
30.79536819458008
  0
VERTEX
  8
4
 10
-29.55872344970703
 20
31.29536819458008
  0
SEQEND
  8
4
  0
POLYLINE
  8
4
  6
CONTINUOUS
 66
     1
 70
     0
 40
0.0
 41
0.0
  0
VERTEX
  8
4
 10
-29.07434844970703
 20
31.60786819458008
  0
VERTEX
  8
4
 10
-28.91809844970703
 20
31.79536819458008
  0
VERTEX
  8
4
 10
-28.73059844970703
 20
31.79536819458008
  0
VERTEX
  8
4
 10
-28.57434844970703
 20
31.60786819458008
  0
VERTEX
  8
4
 10
-28.57434844970703
 20
31.35786819458008
  0
VERTEX
  8
4
 10
-29.07434844970703
 20
30.92036819458008
  0
VERTEX
  8
4
 10
-29.07434844970703
 20
30.79536819458008
  0
VERTEX
  8
4
 10
-28.57434844970703
 20
30.79536819458008
  0
SEQEND
  8
4
  0
POLYLINE
  8
4
  6
CONTINUOUS
 66
     1
 70
     0
 40
0.0
 41
0.0
  0
VERTEX
  8
4
 10
-32.24622344970703
 20
29.87349319458008
 42
0.875
  0
VERTEX
  8
4
 10
-32.74622344970703
 20
29.87349319458008
  0
VERTEX
  8
4
 10
-32.74622344970703
 20
29.27974319458008
 42
0.7500000000000001
  0
VERTEX
  8
4
 10
-32.24622344970703
 20
29.27974319458008
  0
SEQEND
  8
4
  0
POLYLINE
  8
4
  6
CONTINUOUS
 66
     1
 70
     0
 40
0.0
 41
0.0
  0
VERTEX
  8
4
 10
-31.54309844970703
 20
29.59224319458008
  0
VERTEX
  8
4
 10
-31.98059844970703
 20
29.59224319458008
  0
SEQEND
  8
4
  0
POLYLINE
  8
4
  6
CONTINUOUS
 66
     1
 70
     0
 40
0.0
 41
0.0
  0
VERTEX
  8
4
 10
-31.27747344970703
 20
30.09224319458008
  0
VERTEX
  8
4
 10
-30.77747344970703
 20
30.09224319458008
  0
VERTEX
  8
4
 10
-31.27747344970703
 20
29.09224319458008
  0
VERTEX
  8
4
 10
-30.77747344970703
 20
29.09224319458008
  0
SEQEND
  8
4
  0
POLYLINE
  8
4
  6
CONTINUOUS
 66
     1
 70
     0
 40
0.0
 41
0.0
  0
VERTEX
  8
4
 10
-30.04309844970703
 20
30.09224319458008
  0
VERTEX
  8
4
 10
-30.54309844970703
 20
30.09224319458008
  0
VERTEX
  8
4
 10
-30.54309844970703
 20
29.09224319458008
  0
VERTEX
  8
4
 10
-30.04309844970703
 20
29.09224319458008
  0
SEQEND
  8
4
  0
POLYLINE
  8
4
  6
CONTINUOUS
 66
     1
 70
     0
 40
0.0
 41
0.0
  0
VERTEX
  8
4
 10
-30.54309844970703
 20
29.59224319458008
  0
VERTEX
  8
4
 10
-30.04309844970703
 20
29.59224319458008
  0
SEQEND
  8
4
  0
POLYLINE
  8
4
  6
CONTINUOUS
 66
     1
 70
     0
 40
0.0
 41
0.0
  0
VERTEX
  8
4
 10
-29.80872344970703
 20
29.59224319458008
  0
VERTEX
  8
4
 10
-29.55872344970703
 20
29.59224319458008
 42
0.4142135623731064
  0
VERTEX
  8
4
 10
-29.30872344970703
 20
29.84224319458008
 42
0.4142135623731064
  0
VERTEX
  8
4
 10
-29.55872344970703
 20
30.09224319458008
  0
VERTEX
  8
4
 10
-29.80872344970703
 20
30.09224319458008
  0
VERTEX
  8
4
 10
-29.80872344970703
 20
29.09224319458008
  0
SEQEND
  8
4
  0
POLYLINE
  8
4
  6
CONTINUOUS
 66
     1
 70
     0
 40
0.0
 41
0.0
  0
VERTEX
  8
4
 10
-29.30872344970703
 20
29.09224319458008
  0
VERTEX
  8
4
 10
-29.55872344970703
 20
29.59224319458008
  0
SEQEND
  8
4
  0
POLYLINE
  8
4
  6
CONTINUOUS
 66
     1
 70
     0
 40
0.0
 41
0.0
  0
VERTEX
  8
4
 10
-29.07434844970703
 20
29.87349319458008
  0
VERTEX
  8
4
 10
-29.07434844970703
 20
29.27974319458008
 42
0.7500000000000001
  0
VERTEX
  8
4
 10
-28.57434844970703
 20
29.27974319458008
  0
VERTEX
  8
4
 10
-28.57434844970703
 20
29.87349319458008
 42
0.875
  0
VERTEX
  8
4
 10
-29.07434844970703
 20
29.87349319458008
  0
SEQEND
  8
4
  0
ENDBLK
  8
4
  0
BLOCK
  8
4
  2
COMP12
 70
    64
 10
0.0
 20
0.0
  0
POLYLINE
  8
4
  6
CONTINUOUS
 66
     1
 70
     0
 40
0.0
 41
0.0
  0
VERTEX
  8
4
 10
-39.45205307006836
 20
36.51829147338867
 42
0.360132228499441
  0
VERTEX
  8
4
 10
-39.70205307006836
 20
36.70579147338867
 42
0.3984707689582087
  0
VERTEX
  8
4
 10
-39.95205307006836
 20
36.48704147338867
 42
0.4142186781788212
  0
VERTEX
  8
4
 10
-39.70205307006836
 20
36.20579147338867
 42
-0.3750000000000001
  0
VERTEX
  8
4
 10
-39.45205307006836
 20
35.95579147338867
 42
-0.4832297543950834
  0
VERTEX
  8
4
 10
-39.68642807006836
 20
35.70579147338867
 42
-0.3193852892056865
  0
VERTEX
  8
4
 10
-39.95205307006836
 20
35.89329147338867
  0
SEQEND
  8
4
  0
POLYLINE
  8
4
  6
CONTINUOUS
 66
     1
 70
     0
 40
0.0
 41
0.0
  0
VERTEX
  8
4
 10
-38.71767807006836
 20
36.70579147338867
  0
VERTEX
  8
4
 10
-38.84267807006836
 20
35.70579147338867
  0
VERTEX
  8
4
 10
-38.96767807006836
 20
36.67454147338867
  0
VERTEX
  8
4
 10
-39.09267807006836
 20
35.70579147338867
  0
VERTEX
  8
4
 10
-39.21767807006836
 20
36.70579147338867
  0
SEQEND
  8
4
  0
POLYLINE
  8
4
  6
CONTINUOUS
 66
     1
 70
     0
 40
0.0
 41
0.0
  0
VERTEX
  8
4
 10
-38.48330307006836
 20
36.51829147338867
  0
VERTEX
  8
4
 10
-38.32705307006836
 20
36.70579147338867
  0
VERTEX
  8
4
 10
-38.13955307006836
 20
36.70579147338867
  0
VERTEX
  8
4
 10
-37.98330307006836
 20
36.51829147338867
  0
VERTEX
  8
4
 10
-37.98330307006836
 20
36.26829147338867
  0
VERTEX
  8
4
 10
-38.48330307006836
 20
35.83079147338867
  0
VERTEX
  8
4
 10
-38.48330307006836
 20
35.70579147338867
  0
VERTEX
  8
4
 10
-37.98330307006836
 20
35.70579147338867
  0
SEQEND
  8
4
  0
POLYLINE
  8
4
  6
CONTINUOUS
 66
     1
 70
     0
 40
0.0
 41
0.0
  0
VERTEX
  8
4
 10
-39.45205307006836
 20
34.78391647338867
 42
0.875
  0
VERTEX
  8
4
 10
-39.95205307006836
 20
34.78391647338867
  0
VERTEX
  8
4
 10
-39.95205307006836
 20
34.19016647338867
 42
0.7500000000000001
  0
VERTEX
  8
4
 10
-39.45205307006836
 20
34.19016647338867
  0
SEQEND
  8
4
  0
POLYLINE
  8
4
  6
CONTINUOUS
 66
     1
 70
     0
 40
0.0
 41
0.0
  0
VERTEX
  8
4
 10
-39.21767807006836
 20
34.00266647338867
  0
VERTEX
  8
4
 10
-38.96767807006836
 20
35.00266647338867
  0
VERTEX
  8
4
 10
-38.71767807006836
 20
34.00266647338867
  0
SEQEND
  8
4
  0
POLYLINE
  8
4
  6
CONTINUOUS
 66
     1
 70
     0
 40
0.0
 41
0.0
  0
VERTEX
  8
4
 10
-38.79580307006836
 20
34.31516647338867
  0
VERTEX
  8
4
 10
-39.13955307006836
 20
34.31516647338867
  0
SEQEND
  8
4
  0
POLYLINE
  8
4
  6
CONTINUOUS
 66
     1
 70
     0
 40
0.0
 41
0.0
  0
VERTEX
  8
4
 10
-38.48330307006836
 20
35.00266647338867
  0
VERTEX
  8
4
 10
-38.48330307006836
 20
34.00266647338867
  0
VERTEX
  8
4
 10
-37.98330307006836
 20
34.00266647338867
  0
SEQEND
  8
4
  0
ENDBLK
  8
4
  0
BLOCK
  8
4
  2
COMP13
 70
    64
 10
0.0
 20
0.0
  0
POLYLINE
  8
4
  6
CONTINUOUS
 66
     1
 70
     0
 40
0.0
 41
0.0
  0
VERTEX
  8
4
 10
-39.47312545776367
 20
44.34745407104492
  0
VERTEX
  8
4
 10
-39.72312545776367
 20
43.34745407104492
  0
VERTEX
  8
4
 10
-39.97312545776367
 20
44.34745407104492
  0
SEQEND
  8
4
  0
POLYLINE
  8
4
  6
CONTINUOUS
 66
     1
 70
     0
 40
0.0
 41
0.0
  0
VERTEX
  8
4
 10
-39.23875045776367
 20
43.84745407104492
  0
VERTEX
  8
4
 10
-38.98875045776367
 20
43.84745407104492
 42
0.4142135623731064
  0
VERTEX
  8
4
 10
-38.73875045776367
 20
44.09745407104492
 42
0.4142135623731064
  0
VERTEX
  8
4
 10
-38.98875045776367
 20
44.34745407104492
  0
VERTEX
  8
4
 10
-39.23875045776367
 20
44.34745407104492
  0
VERTEX
  8
4
 10
-39.23875045776367
 20
43.34745407104492
  0
SEQEND
  8
4
  0
POLYLINE
  8
4
  6
CONTINUOUS
 66
     1
 70
     0
 40
0.0
 41
0.0
  0
VERTEX
  8
4
 10
-38.73875045776367
 20
43.34745407104492
  0
VERTEX
  8
4
 10
-38.98875045776367
 20
43.84745407104492
  0
SEQEND
  8
4
  0
POLYLINE
  8
4
  6
CONTINUOUS
 66
     1
 70
     0
 40
0.0
 41
0.0
  0
VERTEX
  8
4
 10
-38.25437545776367
 20
44.34745407104492
  0
VERTEX
  8
4
 10
-38.50437545776367
 20
43.65995407104492
  0
VERTEX
  8
4
 10
-38.00437545776367
 20
43.65995407104492
  0
SEQEND
  8
4
  0
POLYLINE
  8
4
  6
CONTINUOUS
 66
     1
 70
     0
 40
0.0
 41
0.0
  0
VERTEX
  8
4
 10
-38.16062545776367
 20
43.34745407104492
  0
VERTEX
  8
4
 10
-38.16062545776367
 20
44.00370407104492
  0
SEQEND
  8
4
  0
POLYLINE
  8
4
  6
CONTINUOUS
 66
     1
 70
     0
 40
0.0
 41
0.0
  0
VERTEX
  8
4
 10
-40.33250045776367
 20
41.64432907104492
  0
VERTEX
  8
4
 10
-40.48875045776367
 20
41.73807907104492
  0
VERTEX
  8
4
 10
-40.55125045776367
 20
41.86307907104492
  0
VERTEX
  8
4
 10
-40.55125045776367
 20
42.42557907104492
  0
VERTEX
  8
4
 10
-40.48875045776367
 20
42.55057907104492
  0
VERTEX
  8
4
 10
-40.33250045776367
 20
42.64432907104492
  0
SEQEND
  8
4
  0
POLYLINE
  8
4
  6
CONTINUOUS
 66
     1
 70
     0
 40
0.0
 41
0.0
  0
VERTEX
  8
4
 10
-39.47312545776367
 20
42.42557907104492
 42
0.875
  0
VERTEX
  8
4
 10
-39.97312545776367
 20
42.42557907104492
  0
VERTEX
  8
4
 10
-39.97312545776367
 20
41.83182907104492
 42
0.7500000000000001
  0
VERTEX
  8
4
 10
-39.47312545776367
 20
41.83182907104492
  0
SEQEND
  8
4
  0
POLYLINE
  8
4
  6
CONTINUOUS
 66
     1
 70
     0
 40
0.0
 41
0.0
  0
VERTEX
  8
4
 10
-39.23875045776367
 20
41.64432907104492
  0
VERTEX
  8
4
 10
-38.98875045776367
 20
42.64432907104492
  0
VERTEX
  8
4
 10
-38.73875045776367
 20
41.64432907104492
  0
SEQEND
  8
4
  0
POLYLINE
  8
4
  6
CONTINUOUS
 66
     1
 70
     0
 40
0.0
 41
0.0
  0
VERTEX
  8
4
 10
-38.81687545776367
 20
41.95682907104492
  0
VERTEX
  8
4
 10
-39.16062545776367
 20
41.95682907104492
  0
SEQEND
  8
4
  0
POLYLINE
  8
4
  6
CONTINUOUS
 66
     1
 70
     0
 40
0.0
 41
0.0
  0
VERTEX
  8
4
 10
-38.50437545776367
 20
42.64432907104492
  0
VERTEX
  8
4
 10
-38.50437545776367
 20
41.64432907104492
  0
VERTEX
  8
4
 10
-38.00437545776367
 20
41.64432907104492
  0
SEQEND
  8
4
  0
POLYLINE
  8
4
  6
CONTINUOUS
 66
     1
 70
     0
 40
0.0
 41
0.0
  0
VERTEX
  8
4
 10
-37.64500045776367
 20
41.64432907104492
  0
VERTEX
  8
4
 10
-37.48875045776367
 20
41.73807907104492
  0
VERTEX
  8
4
 10
-37.42625045776367
 20
41.86307907104492
  0
VERTEX
  8
4
 10
-37.42625045776367
 20
42.42557907104492
  0
VERTEX
  8
4
 10
-37.48875045776367
 20
42.55057907104492
  0
VERTEX
  8
4
 10
-37.64500045776367
 20
42.64432907104492
  0
SEQEND
  8
4
  0
ENDBLK
  8
4
  0
BLOCK
  8
4
  2
COMP14
 70
    64
 10
0.0
 20
0.0
  0
POLYLINE
  8
4
  6
CONTINUOUS
 66
     1
 70
     0
 40
0.0
 41
0.0
  0
VERTEX
  8
4
 10
-26.41206932067871
 20
16.87766075134277
  0
VERTEX
  8
4
 10
-26.14644432067871
 20
16.87766075134277
 42
0.4666666666666667
  0
VERTEX
  8
4
 10
-25.91206932067871
 20
17.11203575134277
  0
VERTEX
  8
4
 10
-25.91206932067871
 20
17.64328575134277
 42
0.4666666666666667
  0
VERTEX
  8
4
 10
-26.14644432067871
 20
17.87766075134277
  0
VERTEX
  8
4
 10
-26.41206932067871
 20
17.87766075134277
  0
VERTEX
  8
4
 10
-26.41206932067871
 20
16.87766075134277
  0
SEQEND
  8
4
  0
POLYLINE
  8
4
  6
CONTINUOUS
 66
     1
 70
     0
 40
0.0
 41
0.0
  0
VERTEX
  8
4
 10
-25.52144432067871
 20
17.87766075134277
  0
VERTEX
  8
4
 10
-25.33394432067871
 20
17.87766075134277
  0
SEQEND
  8
4
  0
POLYLINE
  8
4
  6
CONTINUOUS
 66
     1
 70
     0
 40
0.0
 41
0.0
  0
VERTEX
  8
4
 10
-25.52144432067871
 20
16.87766075134277
  0
VERTEX
  8
4
 10
-25.33394432067871
 20
16.87766075134277
  0
SEQEND
  8
4
  0
POLYLINE
  8
4
  6
CONTINUOUS
 66
     1
 70
     0
 40
0.0
 41
0.0
  0
VERTEX
  8
4
 10
-25.42769432067871
 20
16.87766075134277
  0
VERTEX
  8
4
 10
-25.42769432067871
 20
17.87766075134277
  0
SEQEND
  8
4
  0
POLYLINE
  8
4
  6
CONTINUOUS
 66
     1
 70
     0
 40
0.0
 41
0.0
  0
VERTEX
  8
4
 10
-24.44331932067871
 20
17.65891075134277
 42
0.875
  0
VERTEX
  8
4
 10
-24.94331932067871
 20
17.65891075134277
  0
VERTEX
  8
4
 10
-24.94331932067871
 20
17.06516075134277
 42
0.7500000000000001
  0
VERTEX
  8
4
 10
-24.44331932067871
 20
17.06516075134277
  0
SEQEND
  8
4
  0
POLYLINE
  8
4
  6
CONTINUOUS
 66
     1
 70
     0
 40
0.0
 41
0.0
  0
VERTEX
  8
4
 10
-24.44331932067871
 20
16.87766075134277
  0
VERTEX
  8
4
 10
-24.44331932067871
 20
17.36203575134277
  0
VERTEX
  8
4
 10
-24.69331932067871
 20
17.36203575134277
  0
SEQEND
  8
4
  0
POLYLINE
  8
4
  6
CONTINUOUS
 66
     1
 70
     0
 40
0.0
 41
0.0
  0
VERTEX
  8
4
 10
-23.95894432067871
 20
16.87766075134277
  0
VERTEX
  8
4
 10
-23.95894432067871
 20
17.87766075134277
  0
VERTEX
  8
4
 10
-24.13081932067871
 20
17.58078575134277
  0
SEQEND
  8
4
  0
POLYLINE
  8
4
  6
CONTINUOUS
 66
     1
 70
     0
 40
0.0
 41
0.0
  0
VERTEX
  8
4
 10
-26.41206932067871
 20
16.17453575134277
  0
VERTEX
  8
4
 10
-25.91206932067871
 20
16.17453575134277
  0
SEQEND
  8
4
  0
POLYLINE
  8
4
  6
CONTINUOUS
 66
     1
 70
     0
 40
0.0
 41
0.0
  0
VERTEX
  8
4
 10
-26.16206932067871
 20
16.17453575134277
  0
VERTEX
  8
4
 10
-26.16206932067871
 20
15.17453575134277
  0
SEQEND
  8
4
  0
POLYLINE
  8
4
  6
CONTINUOUS
 66
     1
 70
     0
 40
0.0
 41
0.0
  0
VERTEX
  8
4
 10
-25.67769432067871
 20
15.17453575134277
  0
VERTEX
  8
4
 10
-25.42769432067871
 20
16.17453575134277
  0
VERTEX
  8
4
 10
-25.17769432067871
 20
15.17453575134277
  0
SEQEND
  8
4
  0
POLYLINE
  8
4
  6
CONTINUOUS
 66
     1
 70
     0
 40
0.0
 41
0.0
  0
VERTEX
  8
4
 10
-25.25581932067871
 20
15.48703575134277
  0
VERTEX
  8
4
 10
-25.59956932067871
 20
15.48703575134277
  0
SEQEND
  8
4
  0
POLYLINE
  8
4
  6
CONTINUOUS
 66
     1
 70
     0
 40
0.0
 41
0.0
  0
VERTEX
  8
4
 10
-24.94331932067871
 20
15.67453575134277
  0
VERTEX
  8
4
 10
-24.69331932067871
 20
15.67453575134277
 42
0.4142135623731023
  0
VERTEX
  8
4
 10
-24.44331932067871
 20
15.92453575134277
 42
0.4142135623731064
  0
VERTEX
  8
4
 10
-24.69331932067871
 20
16.17453575134277
  0
VERTEX
  8
4
 10
-24.94331932067871
 20
16.17453575134277
  0
VERTEX
  8
4
 10
-24.94331932067871
 20
15.17453575134277
  0
SEQEND
  8
4
  0
POLYLINE
  8
4
  6
CONTINUOUS
 66
     1
 70
     0
 40
0.0
 41
0.0
  0
VERTEX
  8
4
 10
-24.44331932067871
 20
15.17453575134277
  0
VERTEX
  8
4
 10
-24.69331932067871
 20
15.67453575134277
  0
SEQEND
  8
4
  0
POLYLINE
  8
4
  6
CONTINUOUS
 66
     1
 70
     0
 40
0.0
 41
0.0
  0
VERTEX
  8
4
 10
-23.70894432067871
 20
16.17453575134277
  0
VERTEX
  8
4
 10
-24.20894432067871
 20
16.17453575134277
  0
VERTEX
  8
4
 10
-24.20894432067871
 20
15.17453575134277
  0
VERTEX
  8
4
 10
-23.70894432067871
 20
15.17453575134277
  0
SEQEND
  8
4
  0
POLYLINE
  8
4
  6
CONTINUOUS
 66
     1
 70
     0
 40
0.0
 41
0.0
  0
VERTEX
  8
4
 10
-24.20894432067871
 20
15.67453575134277
  0
VERTEX
  8
4
 10
-23.70894432067871
 20
15.67453575134277
  0
SEQEND
  8
4
  0
ENDBLK
  8
4
  0
BLOCK
  8
4
  2
COMP15
 70
    64
 10
0.0
 20
0.0
  0
POLYLINE
  8
4
  6
CONTINUOUS
 66
     1
 70
     0
 40
0.0
 41
0.0
  0
VERTEX
  8
4
 10
-15.22763824462891
 20
6.977207183837891
  0
VERTEX
  8
4
 10
-15.22763824462891
 20
7.227207183837891
  0
VERTEX
  8
4
 10
-14.72763824462891
 20
7.227207183837891
  0
VERTEX
  8
4
 10
-15.04013824462891
 20
6.258457183837891
  0
SEQEND
  8
4
  0
ENDBLK
  8
4
  0
BLOCK
  8
4
  2
COMP16
 70
    64
 10
0.0
 20
0.0
  0
POLYLINE
  8
4
  6
CONTINUOUS
 66
     1
 70
     0
 40
0.0
 41
0.0
  0
VERTEX
  8
4
 10
-23.03554916381836
 20
6.938816070556641
 42
0.875
  0
VERTEX
  8
4
 10
-23.53554916381836
 20
6.938816070556641
  0
VERTEX
  8
4
 10
-23.53554916381836
 20
6.345066070556641
 42
0.7500000000000001
  0
VERTEX
  8
4
 10
-23.03554916381836
 20
6.345066070556641
  0
SEQEND
  8
4
  0
POLYLINE
  8
4
  6
CONTINUOUS
 66
     1
 70
     0
 40
0.0
 41
0.0
  0
VERTEX
  8
4
 10
-22.80117416381836
 20
6.157566070556641
  0
VERTEX
  8
4
 10
-22.80117416381836
 20
7.157566070556641
  0
VERTEX
  8
4
 10
-22.30117416381836
 20
6.157566070556641
  0
VERTEX
  8
4
 10
-22.30117416381836
 20
7.157566070556641
  0
SEQEND
  8
4
  0
POLYLINE
  8
4
  6
CONTINUOUS
 66
     1
 70
     0
 40
0.0
 41
0.0
  0
VERTEX
  8
4
 10
-22.06679916381836
 20
6.970066070556641
  0
VERTEX
  8
4
 10
-21.91054916381836
 20
7.157566070556641
  0
VERTEX
  8
4
 10
-21.72304916381836
 20
7.157566070556641
  0
VERTEX
  8
4
 10
-21.56679916381836
 20
6.970066070556641
  0
VERTEX
  8
4
 10
-21.56679916381836
 20
6.720066070556641
  0
VERTEX
  8
4
 10
-22.06679916381836
 20
6.282566070556641
  0
VERTEX
  8
4
 10
-22.06679916381836
 20
6.157566070556641
  0
VERTEX
  8
4
 10
-21.56679916381836
 20
6.157566070556641
  0
SEQEND
  8
4
  0
ENDBLK
  8
4
  0
BLOCK
  8
4
  2
COMP17
 70
    64
 10
0.0
 20
0.0
  0
POLYLINE
  8
4
  6
CONTINUOUS
 66
     1
 70
     0
 40
0.0
 41
0.0
  0
VERTEX
  8
4
 10
-30.01005935668945
 20
6.133810043334961
  0
VERTEX
  8
4
 10
-30.01005935668945
 20
7.133810043334961
  0
VERTEX
  8
4
 10
-30.18193435668945
 20
6.836935043334961
  0
SEQEND
  8
4
  0
ENDBLK
  8
4
  0
BLOCK
  8
4
  2
COMP18
 70
    64
 10
0.0
 20
0.0
  0
POLYLINE
  8
4
  6
CONTINUOUS
 66
     1
 70
     0
 40
0.0
 41
0.0
  0
VERTEX
  8
4
 10
-84.48305511474609
 20
41.98650360107422
  0
VERTEX
  8
4
 10
-84.21743011474609
 20
41.98650360107422
 42
0.4666666666666667
  0
VERTEX
  8
4
 10
-83.98305511474609
 20
42.22087860107422
  0
VERTEX
  8
4
 10
-83.98305511474609
 20
42.75212860107422
 42
0.4666666666666667
  0
VERTEX
  8
4
 10
-84.21743011474609
 20
42.98650360107422
  0
VERTEX
  8
4
 10
-84.48305511474609
 20
42.98650360107422
  0
VERTEX
  8
4
 10
-84.48305511474609
 20
41.98650360107422
  0
SEQEND
  8
4
  0
POLYLINE
  8
4
  6
CONTINUOUS
 66
     1
 70
     0
 40
0.0
 41
0.0
  0
VERTEX
  8
4
 10
-83.59243011474609
 20
42.98650360107422
  0
VERTEX
  8
4
 10
-83.40493011474609
 20
42.98650360107422
  0
SEQEND
  8
4
  0
POLYLINE
  8
4
  6
CONTINUOUS
 66
     1
 70
     0
 40
0.0
 41
0.0
  0
VERTEX
  8
4
 10
-83.59243011474609
 20
41.98650360107422
  0
VERTEX
  8
4
 10
-83.40493011474609
 20
41.98650360107422
  0
SEQEND
  8
4
  0
POLYLINE
  8
4
  6
CONTINUOUS
 66
     1
 70
     0
 40
0.0
 41
0.0
  0
VERTEX
  8
4
 10
-83.49868011474609
 20
41.98650360107422
  0
VERTEX
  8
4
 10
-83.49868011474609
 20
42.98650360107422
  0
SEQEND
  8
4
  0
POLYLINE
  8
4
  6
CONTINUOUS
 66
     1
 70
     0
 40
0.0
 41
0.0
  0
VERTEX
  8
4
 10
-83.01430511474609
 20
42.48650360107422
  0
VERTEX
  8
4
 10
-82.76430511474609
 20
42.48650360107422
 42
0.4142135623731064
  0
VERTEX
  8
4
 10
-82.51430511474609
 20
42.73650360107422
 42
0.4142135623731064
  0
VERTEX
  8
4
 10
-82.76430511474609
 20
42.98650360107422
  0
VERTEX
  8
4
 10
-83.01430511474609
 20
42.98650360107422
  0
VERTEX
  8
4
 10
-83.01430511474609
 20
41.98650360107422
  0
SEQEND
  8
4
  0
POLYLINE
  8
4
  6
CONTINUOUS
 66
     1
 70
     0
 40
0.0
 41
0.0
  0
VERTEX
  8
4
 10
-82.02993011474609
 20
41.98650360107422
  0
VERTEX
  8
4
 10
-82.02993011474609
 20
42.98650360107422
  0
VERTEX
  8
4
 10
-82.20180511474609
 20
42.68962860107422
  0
SEQEND
  8
4
  0
ENDBLK
  8
4
  0
BLOCK
  8
4
  2
COMP19
 70
    64
 10
0.0
 20
0.0
  0
POLYLINE
  8
4
  6
CONTINUOUS
 66
     1
 70
     0
 40
0.0
 41
0.0
  0
VERTEX
  8
4
 10
-82.07501220703125
 20
58.3747673034668
  0
VERTEX
  8
4
 10
-82.32501220703125
 20
57.3747673034668
  0
VERTEX
  8
4
 10
-82.57501220703125
 20
58.3747673034668
  0
SEQEND
  8
4
  0
POLYLINE
  8
4
  6
CONTINUOUS
 66
     1
 70
     0
 40
0.0
 41
0.0
  0
VERTEX
  8
4
 10
-81.84063720703125
 20
57.8747673034668
  0
VERTEX
  8
4
 10
-81.59063720703125
 20
57.8747673034668
 42
0.4142135623731064
  0
VERTEX
  8
4
 10
-81.34063720703125
 20
58.1247673034668
 42
0.4142135623731064
  0
VERTEX
  8
4
 10
-81.59063720703125
 20
58.3747673034668
  0
VERTEX
  8
4
 10
-81.84063720703125
 20
58.3747673034668
  0
VERTEX
  8
4
 10
-81.84063720703125
 20
57.3747673034668
  0
SEQEND
  8
4
  0
POLYLINE
  8
4
  6
CONTINUOUS
 66
     1
 70
     0
 40
0.0
 41
0.0
  0
VERTEX
  8
4
 10
-81.34063720703125
 20
57.3747673034668
  0
VERTEX
  8
4
 10
-81.59063720703125
 20
57.8747673034668
  0
SEQEND
  8
4
  0
POLYLINE
  8
4
  6
CONTINUOUS
 66
     1
 70
     0
 40
0.0
 41
0.0
  0
VERTEX
  8
4
 10
-80.85626220703125
 20
57.3747673034668
  0
VERTEX
  8
4
 10
-80.85626220703125
 20
58.3747673034668
  0
VERTEX
  8
4
 10
-81.02813720703125
 20
58.0778923034668
  0
SEQEND
  8
4
  0
POLYLINE
  8
4
  6
CONTINUOUS
 66
     1
 70
     0
 40
0.0
 41
0.0
  0
VERTEX
  8
4
 10
-77.66876220703125
 20
58.3747673034668
  0
VERTEX
  8
4
 10
-78.16876220703125
 20
58.3747673034668
  0
VERTEX
  8
4
 10
-78.16876220703125
 20
57.3747673034668
  0
SEQEND
  8
4
  0
POLYLINE
  8
4
  6
CONTINUOUS
 66
     1
 70
     0
 40
0.0
 41
0.0
  0
VERTEX
  8
4
 10
-78.16876220703125
 20
57.8747673034668
  0
VERTEX
  8
4
 10
-77.73126220703125
 20
57.8747673034668
  0
SEQEND
  8
4
  0
POLYLINE
  8
4
  6
CONTINUOUS
 66
     1
 70
     0
 40
0.0
 41
0.0
  0
VERTEX
  8
4
 10
-76.96563720703125
 20
57.8747673034668
  0
VERTEX
  8
4
 10
-77.40313720703125
 20
57.8747673034668
  0
SEQEND
  8
4
  0
POLYLINE
  8
4
  6
CONTINUOUS
 66
     1
 70
     0
 40
0.0
 41
0.0
  0
VERTEX
  8
4
 10
-76.20001220703125
 20
58.1560173034668
 42
0.875
  0
VERTEX
  8
4
 10
-76.70001220703125
 20
58.1560173034668
  0
VERTEX
  8
4
 10
-76.70001220703125
 20
57.5622673034668
 42
0.7500000000000001
  0
VERTEX
  8
4
 10
-76.20001220703125
 20
57.5622673034668
  0
SEQEND
  8
4
  0
POLYLINE
  8
4
  6
CONTINUOUS
 66
     1
 70
     0
 40
0.0
 41
0.0
  0
VERTEX
  8
4
 10
-76.20001220703125
 20
57.3747673034668
  0
VERTEX
  8
4
 10
-76.20001220703125
 20
57.8591423034668
  0
VERTEX
  8
4
 10
-76.45001220703125
 20
57.8591423034668
  0
SEQEND
  8
4
  0
POLYLINE
  8
4
  6
CONTINUOUS
 66
     1
 70
     0
 40
0.0
 41
0.0
  0
VERTEX
  8
4
 10
-75.96563720703125
 20
57.3747673034668
  0
VERTEX
  8
4
 10
-75.71563720703125
 20
58.3747673034668
  0
VERTEX
  8
4
 10
-75.46563720703125
 20
57.3747673034668
  0
SEQEND
  8
4
  0
POLYLINE
  8
4
  6
CONTINUOUS
 66
     1
 70
     0
 40
0.0
 41
0.0
  0
VERTEX
  8
4
 10
-75.54376220703125
 20
57.6872673034668
  0
VERTEX
  8
4
 10
-75.88751220703125
 20
57.6872673034668
  0
SEQEND
  8
4
  0
POLYLINE
  8
4
  6
CONTINUOUS
 66
     1
 70
     0
 40
0.0
 41
0.0
  0
VERTEX
  8
4
 10
-75.07501220703125
 20
58.3747673034668
  0
VERTEX
  8
4
 10
-74.88751220703125
 20
58.3747673034668
  0
SEQEND
  8
4
  0
POLYLINE
  8
4
  6
CONTINUOUS
 66
     1
 70
     0
 40
0.0
 41
0.0
  0
VERTEX
  8
4
 10
-75.07501220703125
 20
57.3747673034668
  0
VERTEX
  8
4
 10
-74.88751220703125
 20
57.3747673034668
  0
SEQEND
  8
4
  0
POLYLINE
  8
4
  6
CONTINUOUS
 66
     1
 70
     0
 40
0.0
 41
0.0
  0
VERTEX
  8
4
 10
-74.98126220703125
 20
57.3747673034668
  0
VERTEX
  8
4
 10
-74.98126220703125
 20
58.3747673034668
  0
SEQEND
  8
4
  0
POLYLINE
  8
4
  6
CONTINUOUS
 66
     1
 70
     0
 40
0.0
 41
0.0
  0
VERTEX
  8
4
 10
-74.49688720703125
 20
57.3747673034668
  0
VERTEX
  8
4
 10
-74.49688720703125
 20
58.3747673034668
  0
VERTEX
  8
4
 10
-73.99688720703125
 20
57.3747673034668
  0
VERTEX
  8
4
 10
-73.99688720703125
 20
58.3747673034668
  0
SEQEND
  8
4
  0
ENDBLK
  8
4
  0
BLOCK
  8
4
  2
COMP20
 70
    64
 10
0.0
 20
0.0
  0
POLYLINE
  8
4
  6
CONTINUOUS
 66
     1
 70
     0
 40
0.0
 41
0.0
  0
VERTEX
  8
4
 10
-70.08287048339844
 20
68.13349914550781
  0
VERTEX
  8
4
 10
-69.81724548339844
 20
68.13349914550781
 42
0.4666666666666667
  0
VERTEX
  8
4
 10
-69.58287048339844
 20
68.36787414550781
  0
VERTEX
  8
4
 10
-69.58287048339844
 20
68.89912414550781
 42
0.4666666666666667
  0
VERTEX
  8
4
 10
-69.81724548339844
 20
69.13349914550781
  0
VERTEX
  8
4
 10
-70.08287048339844
 20
69.13349914550781
  0
VERTEX
  8
4
 10
-70.08287048339844
 20
68.13349914550781
  0
SEQEND
  8
4
  0
POLYLINE
  8
4
  6
CONTINUOUS
 66
     1
 70
     0
 40
0.0
 41
0.0
  0
VERTEX
  8
4
 10
-69.19224548339844
 20
69.13349914550781
  0
VERTEX
  8
4
 10
-69.00474548339844
 20
69.13349914550781
  0
SEQEND
  8
4
  0
POLYLINE
  8
4
  6
CONTINUOUS
 66
     1
 70
     0
 40
0.0
 41
0.0
  0
VERTEX
  8
4
 10
-69.19224548339844
 20
68.13349914550781
  0
VERTEX
  8
4
 10
-69.00474548339844
 20
68.13349914550781
  0
SEQEND
  8
4
  0
POLYLINE
  8
4
  6
CONTINUOUS
 66
     1
 70
     0
 40
0.0
 41
0.0
  0
VERTEX
  8
4
 10
-69.09849548339844
 20
68.13349914550781
  0
VERTEX
  8
4
 10
-69.09849548339844
 20
69.13349914550781
  0
SEQEND
  8
4
  0
POLYLINE
  8
4
  6
CONTINUOUS
 66
     1
 70
     0
 40
0.0
 41
0.0
  0
VERTEX
  8
4
 10
-68.11412048339844
 20
68.91474914550781
 42
0.875
  0
VERTEX
  8
4
 10
-68.61412048339844
 20
68.91474914550781
  0
VERTEX
  8
4
 10
-68.61412048339844
 20
68.32099914550781
 42
0.7500000000000001
  0
VERTEX
  8
4
 10
-68.11412048339844
 20
68.32099914550781
  0
SEQEND
  8
4
  0
POLYLINE
  8
4
  6
CONTINUOUS
 66
     1
 70
     0
 40
0.0
 41
0.0
  0
VERTEX
  8
4
 10
-68.11412048339844
 20
68.13349914550781
  0
VERTEX
  8
4
 10
-68.11412048339844
 20
68.61787414550781
  0
VERTEX
  8
4
 10
-68.36412048339844
 20
68.61787414550781
  0
SEQEND
  8
4
  0
POLYLINE
  8
4
  6
CONTINUOUS
 66
     1
 70
     0
 40
0.0
 41
0.0
  0
VERTEX
  8
4
 10
-67.87974548339844
 20
68.94599914550781
  0
VERTEX
  8
4
 10
-67.72349548339844
 20
69.13349914550781
  0
VERTEX
  8
4
 10
-67.53599548339844
 20
69.13349914550781
  0
VERTEX
  8
4
 10
-67.37974548339844
 20
68.94599914550781
  0
VERTEX
  8
4
 10
-67.37974548339844
 20
68.69599914550781
  0
VERTEX
  8
4
 10
-67.87974548339844
 20
68.25849914550781
  0
VERTEX
  8
4
 10
-67.87974548339844
 20
68.13349914550781
  0
VERTEX
  8
4
 10
-67.37974548339844
 20
68.13349914550781
  0
SEQEND
  8
4
  0
POLYLINE
  8
4
  6
CONTINUOUS
 66
     1
 70
     0
 40
0.0
 41
0.0
  0
VERTEX
  8
4
 10
-65.91099548339844
 20
68.91474914550781
 42
0.875
  0
VERTEX
  8
4
 10
-66.41099548339844
 20
68.91474914550781
  0
VERTEX
  8
4
 10
-66.41099548339844
 20
68.32099914550781
 42
0.7500000000000001
  0
VERTEX
  8
4
 10
-65.91099548339844
 20
68.32099914550781
  0
SEQEND
  8
4
  0
POLYLINE
  8
4
  6
CONTINUOUS
 66
     1
 70
     0
 40
0.0
 41
0.0
  0
VERTEX
  8
4
 10
-65.20787048339844
 20
68.63349914550781
  0
VERTEX
  8
4
 10
-65.64537048339844
 20
68.63349914550781
  0
SEQEND
  8
4
  0
POLYLINE
  8
4
  6
CONTINUOUS
 66
     1
 70
     0
 40
0.0
 41
0.0
  0
VERTEX
  8
4
 10
-64.44224548339844
 20
68.91474914550781
 42
0.875
  0
VERTEX
  8
4
 10
-64.94224548339844
 20
68.91474914550781
  0
VERTEX
  8
4
 10
-64.94224548339844
 20
68.32099914550781
 42
0.7500000000000001
  0
VERTEX
  8
4
 10
-64.44224548339844
 20
68.32099914550781
  0
SEQEND
  8
4
  0
POLYLINE
  8
4
  6
CONTINUOUS
 66
     1
 70
     0
 40
0.0
 41
0.0
  0
VERTEX
  8
4
 10
-64.44224548339844
 20
68.13349914550781
  0
VERTEX
  8
4
 10
-64.44224548339844
 20
68.61787414550781
  0
VERTEX
  8
4
 10
-64.69224548339844
 20
68.61787414550781
  0
SEQEND
  8
4
  0
POLYLINE
  8
4
  6
CONTINUOUS
 66
     1
 70
     0
 40
0.0
 41
0.0
  0
VERTEX
  8
4
 10
-64.20787048339844
 20
68.13349914550781
  0
VERTEX
  8
4
 10
-63.95787048339844
 20
69.13349914550781
  0
VERTEX
  8
4
 10
-63.70787048339844
 20
68.13349914550781
  0
SEQEND
  8
4
  0
POLYLINE
  8
4
  6
CONTINUOUS
 66
     1
 70
     0
 40
0.0
 41
0.0
  0
VERTEX
  8
4
 10
-63.78599548339844
 20
68.44599914550781
  0
VERTEX
  8
4
 10
-64.12974548339844
 20
68.44599914550781
  0
SEQEND
  8
4
  0
POLYLINE
  8
4
  6
CONTINUOUS
 66
     1
 70
     0
 40
0.0
 41
0.0
  0
VERTEX
  8
4
 10
-63.31724548339844
 20
69.13349914550781
  0
VERTEX
  8
4
 10
-63.12974548339844
 20
69.13349914550781
  0
SEQEND
  8
4
  0
POLYLINE
  8
4
  6
CONTINUOUS
 66
     1
 70
     0
 40
0.0
 41
0.0
  0
VERTEX
  8
4
 10
-63.31724548339844
 20
68.13349914550781
  0
VERTEX
  8
4
 10
-63.12974548339844
 20
68.13349914550781
  0
SEQEND
  8
4
  0
POLYLINE
  8
4
  6
CONTINUOUS
 66
     1
 70
     0
 40
0.0
 41
0.0
  0
VERTEX
  8
4
 10
-63.22349548339844
 20
68.13349914550781
  0
VERTEX
  8
4
 10
-63.22349548339844
 20
69.13349914550781
  0
SEQEND
  8
4
  0
POLYLINE
  8
4
  6
CONTINUOUS
 66
     1
 70
     0
 40
0.0
 41
0.0
  0
VERTEX
  8
4
 10
-62.73912048339844
 20
68.13349914550781
  0
VERTEX
  8
4
 10
-62.73912048339844
 20
69.13349914550781
  0
VERTEX
  8
4
 10
-62.23912048339844
 20
68.13349914550781
  0
VERTEX
  8
4
 10
-62.23912048339844
 20
69.13349914550781
  0
SEQEND
  8
4
  0
ENDBLK
  8
4
  0
BLOCK
  8
4
  2
COMP21
 70
    64
 10
0.0
 20
0.0
  0
POLYLINE
  8
4
  6
CONTINUOUS
 66
     1
 70
     0
 40
0.0
 41
0.0
  0
VERTEX
  8
4
 10
-96.48850250244141
 20
71.60323333740234
  0
VERTEX
  8
4
 10
-96.73850250244141
 20
70.60323333740234
  0
VERTEX
  8
4
 10
-96.98850250244141
 20
71.60323333740234
  0
SEQEND
  8
4
  0
POLYLINE
  8
4
  6
CONTINUOUS
 66
     1
 70
     0
 40
0.0
 41
0.0
  0
VERTEX
  8
4
 10
-96.25412750244141
 20
71.10323333740234
  0
VERTEX
  8
4
 10
-96.00412750244141
 20
71.10323333740234
 42
0.4142135623731064
  0
VERTEX
  8
4
 10
-95.75412750244141
 20
71.35323333740234
 42
0.4142135623731064
  0
VERTEX
  8
4
 10
-96.00412750244141
 20
71.60323333740234
  0
VERTEX
  8
4
 10
-96.25412750244141
 20
71.60323333740234
  0
VERTEX
  8
4
 10
-96.25412750244141
 20
70.60323333740234
  0
SEQEND
  8
4
  0
POLYLINE
  8
4
  6
CONTINUOUS
 66
     1
 70
     0
 40
0.0
 41
0.0
  0
VERTEX
  8
4
 10
-95.75412750244141
 20
70.60323333740234
  0
VERTEX
  8
4
 10
-96.00412750244141
 20
71.10323333740234
  0
SEQEND
  8
4
  0
POLYLINE
  8
4
  6
CONTINUOUS
 66
     1
 70
     0
 40
0.0
 41
0.0
  0
VERTEX
  8
4
 10
-95.05100250244141
 20
71.57198333740234
  0
VERTEX
  8
4
 10
-95.45725250244141
 20
71.57198333740234
  0
VERTEX
  8
4
 10
-95.51975250244141
 20
71.13448333740234
  0
VERTEX
  8
4
 10
-95.36350250244141
 20
71.19698333740234
  0
VERTEX
  8
4
 10
-95.17600250244141
 20
71.19698333740234
  0
VERTEX
  8
4
 10
-95.01975250244141
 20
71.07198333740234
  0
VERTEX
  8
4
 10
-95.01975250244141
 20
70.75948333740234
  0
VERTEX
  8
4
 10
-95.17600250244141
 20
70.60323333740234
  0
VERTEX
  8
4
 10
-95.36350250244141
 20
70.60323333740234
  0
VERTEX
  8
4
 10
-95.51975250244141
 20
70.75948333740234
  0
SEQEND
  8
4
  0
ENDBLK
  8
4
  0
ENDSEC
  0
SECTION
  2
ENTITIES
  0
LINE
  8
3
  6
CONTINUOUS
 10
0.0
 20
0.0
 11
0.0
 21
160.0
  0
LINE
  8
3
  6
CONTINUOUS
 10
0.0
 20
0.0
 11
-110.0
 21
0.0
  0
LINE
  8
3
  6
CONTINUOUS
 10
-110.0
 20
0.0
 11
-110.0
 21
160.0
  0
LINE
  8
3
  6
CONTINUOUS
 10
0.0
 20
160.0
 11
-110.0
 21
160.0
  0
CIRCLE
  8
3
  6
CONTINUOUS
 10
-5.0
 20
5.0
 40
2.0
  0
CIRCLE
  8
3
  6
CONTINUOUS
 10
-105.0
 20
5.0
 40
2.0
  0
CIRCLE
  8
3
  6
CONTINUOUS
 10
-105.0
 20
155.0
 40
2.0
  0
CIRCLE
  8
3
  6
CONTINUOUS
 10
-5.0
 20
155.0
 40
2.0
  0
LINE
  8
14
  6
CENTER
 10
-105.0
 20
148.0
 11
-105.0
 21
162.0
  0
LINE
  8
14
  6
CENTER
 10
-98.0
 20
155.0
 11
-112.0
 21
155.0
  0
LINE
  8
14
  6
CENTER
 10
-105.0
 20
-2.0
 11
-105.0
 21
12.0
  0
LINE
  8
14
  6
CENTER
 10
-98.0
 20
5.0
 11
-112.0
 21
5.0
  0
LINE
  8
14
  6
CENTER
 10
-5.0
 20
-2.0
 11
-5.0
 21
12.0
  0
LINE
  8
14
  6
CENTER
 10
2.0
 20
5.0
 11
-12.0
 21
5.0
  0
LINE
  8
14
  6
CENTER
 10
-5.0
 20
148.0
 11
-5.0
 21
162.0
  0
LINE
  8
14
  6
CENTER
 10
2.0
 20
155.0
 11
-12.0
 21
155.0
  0
POLYLINE
  8
3
  6
CONTINUOUS
 66
     1
 70
     0
 40
0.0
 41
0.0
  0
VERTEX
  8
3
 10
-110.0
 20
160.0
  0
VERTEX
  8
3
 10
0.0
 20
160.0
  0
VERTEX
  8
3
 10
0.0
 20
0.0
  0
VERTEX
  8
3
 10
-110.0
 20
0.0
  0
VERTEX
  8
3
 10
-110.0
 20
160.0
  0
SEQEND
  8
3
  0
CIRCLE
  8
3
  6
CONTINUOUS
 10
-105.0
 20
155.0
 40
3.0
  0
CIRCLE
  8
3
  6
CONTINUOUS
 10
-5.0
 20
155.0
 40
3.0
  0
CIRCLE
  8
3
  6
CONTINUOUS
 10
-5.0
 20
5.0
 40
3.0
  0
CIRCLE
  8
3
  6
CONTINUOUS
 10
-105.0
 20
5.0
 40
3.0
  0
DIMENSION
  8
3
  6
CONTINUOUS
  2
*D1
 10
-6.138419957660616
 20
156.6443843832876
 11
-29.8125
 21
174.109375
 70
   131
 15
-3.861580042339384
 25
153.3556156167124
  0
DIMENSION
  8
3
  6
CONTINUOUS
  2
*D2
 10
14.0
 20
5.000000000000001
 11
13.0
 21
1.75000011920929
 70
   128
 13
0.0
 23
0.0
 14
2.0
 24
5.0
 50
90.0
  0
DIMENSION
  8
3
  6
CONTINUOUS
  2
*D3
 10
14.0
 20
155.0
 11
13.0
 21
77.046875
 70
   128
 13
2.0
 23
5.0
 14
2.0
 24
155.0
 50
90.0
  0
DIMENSION
  8
3
  6
CONTINUOUS
  2
*D4
 10
21.0
 20
160.0
 11
20.0
 21
77.046875
 70
   128
 13
0.0
 23
0.0
 14
0.0
 24
160.0
 50
90.0
  0
DIMENSION
  8
3
  6
CONTINUOUS
  2
*D5
 10
-105.0
 20
-14.0
 11
-108.25
 21
-13.0
 70
   128
 13
-110.0
 23
0.0
 14
-105.0
 24
-2.0
 50
0.0
  0
DIMENSION
  8
3
  6
CONTINUOUS
  2
*D6
 10
-5.0
 20
-14.0
 11
-57.953125
 21
-13.0
 70
   128
 13
-105.0
 23
-2.0
 14
-5.0
 24
-2.0
 50
0.0
  0
DIMENSION
  8
3
  6
CONTINUOUS
  2
*D7
 10
0.0
 20
-21.0
 11
-57.953125
 21
-20.0
 70
   128
 13
-110.0
 23
0.0
 14
0.0
 24
0.0
 50
0.0
  0
LINE
  8
4
  6
CONTINUOUS
 10
-102.1
 20
126.25
 11
-102.1
 21
146.25
  0
LINE
  8
4
  6
CONTINUOUS
 10
-96.39999999999999
 20
126.25
 11
-96.39999999999999
 21
146.25
  0
LINE
  8
4
  6
CONTINUOUS
 10
-101.2
 20
126.25
 11
-101.2
 21
146.25
  0
LINE
  8
4
  6
CONTINUOUS
 10
-102.1
 20
146.25
 11
-96.39999999999999
 21
146.25
  0
LINE
  8
4
  6
CONTINUOUS
 10
-102.1
 20
126.25
 11
-96.39999999999999
 21
126.25
  0
LINE
  8
4
  6
CONTINUOUS
 10
-99.33
 20
62.98799999999999
 11
-99.33
 21
69.988
  0
LINE
  8
4
  6
CONTINUOUS
 10
-92.73
 20
62.98799999999999
 11
-92.73
 21
69.988
  0
LINE
  8
4
  6
CONTINUOUS
 10
-92.73
 20
62.98799999999999
 11
-99.33
 21
62.98799999999999
  0
LINE
  8
4
  6
CONTINUOUS
 10
-92.73
 20
69.988
 11
-99.33
 21
69.988
  0
LINE
  8
4
  6
CONTINUOUS
 10
-92.73
 20
69.58799999999999
 11
-99.33
 21
69.58799999999999
  0
CIRCLE
  8
4
  6
CONTINUOUS
 10
-96.03
 20
66.288
 40
2.0
  0
LINE
  8
4
  6
CONTINUOUS
 10
-71.185
 20
57.23
 11
-71.185
 21
67.22999999999999
  0
LINE
  8
4
  6
CONTINUOUS
 10
-61.185
 20
57.23
 11
-61.185
 21
67.22999999999999
  0
LINE
  8
4
  6
CONTINUOUS
 10
-61.185
 20
67.22999999999999
 11
-71.185
 21
67.22999999999999
  0
LINE
  8
4
  6
CONTINUOUS
 10
-61.185
 20
57.23
 11
-71.185
 21
57.23
  0
LINE
  8
4
  6
CONTINUOUS
 10
-1.519999999999993
 20
130.13
 11
-1.519999999999993
 21
146.73
  0
LINE
  8
4
  6
CONTINUOUS
 10
-1.519999999999993
 20
146.73
 11
-5.0
 21
146.73
  0
LINE
  8
4
  6
CONTINUOUS
 10
-1.519999999999993
 20
130.13
 11
-5.0
 21
130.13
  0
LINE
  8
4
  6
CONTINUOUS
 10
-5.119999999999993
 20
130.13
 11
-5.119999999999993
 21
146.73
  0
LINE
  8
4
  6
CONTINUOUS
 10
-15.092
 20
69.19
 11
-15.092
 21
75.59
  0
LINE
  8
4
  6
CONTINUOUS
 10
-8.691999999999997
 20
69.19
 11
-8.691999999999997
 21
75.59
  0
LINE
  8
4
  6
CONTINUOUS
 10
-16.94700000000001
 20
69.19
 11
-16.94700000000001
 21
75.59
  0
LINE
  8
4
  6
CONTINUOUS
 10
-23.34700000000001
 20
69.19
 11
-23.34700000000001
 21
75.59
  0
LINE
  8
4
  6
CONTINUOUS
 10
-8.691999999999997
 20
75.59
 11
-15.092
 21
75.59
  0
LINE
  8
4
  6
CONTINUOUS
 10
-16.94700000000001
 20
75.59
 11
-23.34700000000001
 21
75.59
  0
LINE
  8
4
  6
CONTINUOUS
 10
-8.691999999999997
 20
69.19
 11
-15.092
 21
69.19
  0
LINE
  8
4
  6
CONTINUOUS
 10
-16.94700000000001
 20
69.19
 11
-23.34700000000001
 21
69.19
  0
CIRCLE
  8
4
  6
CONTINUOUS
 10
-11.892
 20
72.39
 40
1.4
  0
CIRCLE
  8
4
  6
CONTINUOUS
 10
-33.16500000000001
 20
43.11
 40
2.0
  0
LINE
  8
4
  6
CONTINUOUS
 10
-29.86500000000001
 20
46.41
 11
-36.465
 21
46.41
  0
LINE
  8
4
  6
CONTINUOUS
 10
-29.86500000000001
 20
46.81
 11
-36.465
 21
46.81
  0
LINE
  8
4
  6
CONTINUOUS
 10
-29.86500000000001
 20
39.81
 11
-36.465
 21
39.81
  0
LINE
  8
4
  6
CONTINUOUS
 10
-36.465
 20
39.81
 11
-36.465
 21
46.81
  0
LINE
  8
4
  6
CONTINUOUS
 10
-29.86500000000001
 20
39.81
 11
-29.86500000000001
 21
46.81
  0
CIRCLE
  8
4
  6
CONTINUOUS
 10
-33.8
 20
35.56
 40
1.4
  0
LINE
  8
4
  6
CONTINUOUS
 10
-37.0
 20
32.36
 11
-37.0
 21
38.76000000000001
  0
LINE
  8
4
  6
CONTINUOUS
 10
-30.6
 20
32.36
 11
-30.6
 21
38.76000000000001
  0
LINE
  8
4
  6
CONTINUOUS
 10
-30.6
 20
32.36
 11
-37.0
 21
32.36
  0
LINE
  8
4
  6
CONTINUOUS
 10
-30.6
 20
38.76000000000001
 11
-37.0
 21
38.76000000000001
  0
LINE
  8
4
  6
CONTINUOUS
 10
-18.005
 20
41.18
 11
-18.005
 21
45.18
  0
LINE
  8
4
  6
CONTINUOUS
 10
-28.005
 20
41.18
 11
-28.005
 21
45.18
  0
LINE
  8
4
  6
CONTINUOUS
 10
-18.005
 20
45.18
 11
-28.005
 21
45.18
  0
LINE
  8
4
  6
CONTINUOUS
 10
-18.005
 20
41.18
 11
-28.005
 21
41.18
  0
LINE
  8
4
  6
CONTINUOUS
 10
-18.255
 20
29.35
 11
-18.255
 21
34.15
  0
LINE
  8
4
  6
CONTINUOUS
 10
-18.255
 20
34.74800000000001
 11
-18.255
 21
39.548
  0
LINE
  8
4
  6
CONTINUOUS
 10
-27.755
 20
29.35
 11
-27.755
 21
34.15
  0
LINE
  8
4
  6
CONTINUOUS
 10
-27.755
 20
34.74800000000001
 11
-27.755
 21
39.548
  0
LINE
  8
4
  6
CONTINUOUS
 10
-18.255
 20
39.548
 11
-27.755
 21
39.548
  0
LINE
  8
4
  6
CONTINUOUS
 10
-18.255
 20
34.74800000000001
 11
-27.755
 21
34.74800000000001
  0
LINE
  8
4
  6
CONTINUOUS
 10
-18.255
 20
34.15
 11
-27.755
 21
34.15
  0
LINE
  8
4
  6
CONTINUOUS
 10
-18.255
 20
29.35
 11
-27.755
 21
29.35
  0
LINE
  8
4
  6
CONTINUOUS
 10
-17.37000000000001
 20
28.49499999999999
 11
-27.37000000000001
 21
28.49499999999999
  0
LINE
  8
4
  6
CONTINUOUS
 10
-17.37000000000001
 20
18.495
 11
-27.37000000000001
 21
18.495
  0
LINE
  8
4
  6
CONTINUOUS
 10
-17.37000000000001
 20
18.495
 11
-17.37000000000001
 21
28.49499999999999
  0
LINE
  8
4
  6
CONTINUOUS
 10
-27.37000000000001
 20
18.495
 11
-27.37000000000001
 21
28.49499999999999
  0
LINE
  8
4
  6
CONTINUOUS
 10
-13.75
 20
7.9
 11
-31.25
 21
7.9
  0
LINE
  8
4
  6
CONTINUOUS
 10
-13.75
 20
8.800000000000001
 11
-31.25
 21
8.800000000000001
  0
LINE
  8
4
  6
CONTINUOUS
 10
-13.75
 20
13.6
 11
-31.25
 21
13.6
  0
LINE
  8
4
  6
CONTINUOUS
 10
-31.25
 20
7.9
 11
-31.25
 21
13.6
  0
LINE
  8
4
  6
CONTINUOUS
 10
-13.75
 20
7.9
 11
-13.75
 21
13.6
  0
CIRCLE
  8
4
  6
CONTINUOUS
 10
-20.14700000000001
 20
72.39
 40
1.4
  0
CIRCLE
  8
4
  6
CONTINUOUS
 10
-19.38685595134013
 20
35.90153327366597
 40
1.0
  0
CIRCLE
  8
4
  6
CONTINUOUS
 10
-19.38685595134013
 20
30.50353327366597
 40
1.0
  0
LINE
  8
4
  6
CONTINUOUS
 10
-83.72200000000001
 20
41.0
 11
-89.922
 21
41.0
  0
LINE
  8
4
  6
CONTINUOUS
 10
-83.72200000000001
 20
35.2
 11
-89.922
 21
35.2
  0
LINE
  8
4
  6
CONTINUOUS
 10
-89.922
 20
35.2
 11
-89.922
 21
41.0
  0
LINE
  8
4
  6
CONTINUOUS
 10
-83.72200000000001
 20
35.2
 11
-83.72200000000001
 21
41.0
  0
LINE
  8
4
  6
CONTINUOUS
 10
-73.5
 20
56.375
 11
-83.0
 21
56.375
  0
LINE
  8
4
  6
CONTINUOUS
 10
-73.5
 20
51.575
 11
-83.0
 21
51.575
  0
LINE
  8
4
  6
CONTINUOUS
 10
-73.5
 20
51.575
 11
-73.5
 21
56.375
  0
LINE
  8
4
  6
CONTINUOUS
 10
-83.0
 20
51.575
 11
-83.0
 21
56.375
  0
CIRCLE
  8
4
  6
CONTINUOUS
 10
-74.63185595134014
 20
52.72853327366597
 40
1.0
  0
INSERT
  8
4
  6
CONTINUOUS
  2
COMP1
 10
0.0
 20
0.0
 41
1.0
 42
1.0
 50
0.0
  0
INSERT
  8
4
  6
CONTINUOUS
  2
COMP2
 10
0.0
 20
0.0
 41
1.0
 42
1.0
 50
0.0
  0
INSERT
  8
4
  6
CONTINUOUS
  2
COMP3
 10
0.0
 20
0.0
 41
1.0
 42
1.0
 50
0.0
  0
INSERT
  8
4
  6
CONTINUOUS
  2
COMP4
 10
0.0
 20
0.0
 41
1.0
 42
1.0
 50
0.0
  0
INSERT
  8
4
  6
CONTINUOUS
  2
COMP5
 10
0.0
 20
0.0
 41
1.0
 42
1.0
 50
0.0
  0
INSERT
  8
4
  6
CONTINUOUS
  2
COMP6
 10
0.0
 20
0.0
 41
1.0
 42
1.0
 50
0.0
  0
INSERT
  8
4
  6
CONTINUOUS
  2
COMP7
 10
0.0
 20
0.0
 41
1.0
 42
1.0
 50
0.0
  0
INSERT
  8
4
  6
CONTINUOUS
  2
COMP8
 10
0.0
 20
0.0
 41
1.0
 42
1.0
 50
0.0
  0
INSERT
  8
4
  6
CONTINUOUS
  2
COMP9
 10
0.0
 20
0.0
 41
1.0
 42
1.0
 50
0.0
  0
INSERT
  8
4
  6
CONTINUOUS
  2
COMP10
 10
0.0
 20
0.0
 41
1.0
 42
1.0
 50
0.0
  0
INSERT
  8
4
  6
CONTINUOUS
  2
COMP11
 10
0.0
 20
0.0
 41
1.0
 42
1.0
 50
0.0
  0
INSERT
  8
4
  6
CONTINUOUS
  2
COMP12
 10
0.0
 20
0.0
 41
1.0
 42
1.0
 50
0.0
  0
INSERT
  8
4
  6
CONTINUOUS
  2
COMP13
 10
0.0
 20
0.0
 41
1.0
 42
1.0
 50
0.0
  0
INSERT
  8
4
  6
CONTINUOUS
  2
COMP14
 10
0.0
 20
0.0
 41
1.0
 42
1.0
 50
0.0
  0
INSERT
  8
4
  6
CONTINUOUS
  2
COMP15
 10
0.0
 20
0.0
 41
1.0
 42
1.0
 50
0.0
  0
INSERT
  8
4
  6
CONTINUOUS
  2
COMP16
 10
0.0
 20
0.0
 41
1.0
 42
1.0
 50
0.0
  0
INSERT
  8
4
  6
CONTINUOUS
  2
COMP17
 10
0.0
 20
0.0
 41
1.0
 42
1.0
 50
0.0
  0
INSERT
  8
4
  6
CONTINUOUS
  2
COMP18
 10
0.0
 20
0.0
 41
1.0
 42
1.0
 50
0.0
  0
INSERT
  8
4
  6
CONTINUOUS
  2
COMP19
 10
0.0
 20
0.0
 41
1.0
 42
1.0
 50
0.0
  0
INSERT
  8
4
  6
CONTINUOUS
  2
COMP20
 10
0.0
 20
0.0
 41
1.0
 42
1.0
 50
0.0
  0
INSERT
  8
4
  6
CONTINUOUS
  2
COMP21
 10
0.0
 20
0.0
 41
1.0
 42
1.0
 50
0.0
  0
ENDSEC
  0
EOF
