  0
SECTION
  2
HEADER
  9
$ACADVER
  1
AC1015
  9
$ACADMAINTVER
 70
     0
  9
$DWGCODEPAGE
  3
ANSI_932
  9
$INSBASE
 10
0.0
 20
0.0
 30
0.0
  9
$EXTMIN
 10
-50.0245666503906
 20
-72.7662200927734
 30
0.0
  9
$EXTMAX
 10
89.0046081542969
 20
95.0
 30
0.0
  9
$LIMMIN
 10
-50.0245666503906
 20
-72.7662200927734
  9
$LIMMAX
 10
89.0046081542969
 20
95.0
  9
$ORTHOMODE
 70
     0
  9
$REGENMODE
 70
     1
  9
$FILLMODE
 70
     1
  9
$QTEXTMODE
 70
     0
  9
$MIRRTEXT
 70
     1
  9
$LTSCALE
 40
1.0
  9
$ATTMODE
 70
     1
  9
$TEXTSIZE
 40
3.0
  9
$TRACEWID
 40
0.5
  9
$TEXTSTYLE
  7
STANDARD
  9
$CLAYER
  8
0
  9
$CELTYPE
  6
BYLAYER
  9
$CECOLOR
 62
   256
  9
$CELTSCALE
 40
1.0
  9
$DISPSILH
 70
     0
  9
$DIMSCALE
 40
1.0
  9
$DIMASZ
 40
3.0
  9
$DIMEXO
 40
1.0
  9
$DIMDLI
 40
5.0
  9
$DIMRND
 40
0.0
  9
$DIMDLE
 40
5.0
  9
$DIMEXE
 40
2.0
  9
$DIMTP
 40
0.0
  9
$DIMTM
 40
0.0
  9
$DIMTXT
 40
3.0
  9
$DIMCEN
 40
2.0
  9
$DIMTSZ
 40
0.0
  9
$DIMTOL
 70
     0
  9
$DIMLIM
 70
     0
  9
$DIMTIH
 70
     0
  9
$DIMTOH
 70
     0
  9
$DIMSE1
 70
     0
  9
$DIMSE2
 70
     0
  9
$DIMTAD
 70
     1
  9
$DIMZIN
 70
     8
  9
$DIMBLK
  1

  9
$DIMASO
 70
     1
  9
$DIMSHO
 70
     1
  9
$DIMPOST
  1

  9
$DIMAPOST
  1

  9
$DIMALT
 70
     0
  9
$DIMALTD
 70
     4
  9
$DIMALTF
 40
0.0393700787401575
  9
$DIMLFAC
 40
1.0
  9
$DIMTOFL
 70
     1
  9
$DIMTVP
 40
1.0
  9
$DIMTIX
 70
     0
  9
$DIMSOXD
 70
     0
  9
$DIMSAH
 70
     0
  9
$DIMBLK1
  1

  9
$DIMBLK2
  1

  9
$DIMSTYLE
  2
ISO-25
  9
$DIMCLRD
 70
     0
  9
$DIMCLRE
 70
     0
  9
$DIMCLRT
 70
     0
  9
$DIMTFAC
 40
1.0
  9
$DIMGAP
 40
1.0
  9
$DIMJUST
 70
     0
  9
$DIMSD1
 70
     0
  9
$DIMSD2
 70
     0
  9
$DIMTOLJ
 70
     1
  9
$DIMTZIN
 70
     1
  9
$DIMALTZ
 70
     0
  9
$DIMALTTZ
 70
     0
  9
$DIMUPT
 70
     0
  9
$DIMDEC
 70
     3
  9
$DIMTDEC
 70
     3
  9
$DIMALTU
 70
     8
  9
$DIMALTTD
 70
     4
  9
$DIMTXSTY
  7
STANDARD
  9
$DIMAUNIT
 70
     0
  9
$DIMADEC
 70
     0
  9
$DIMALTRND
 40
0.0
  9
$DIMAZIN
 70
     0
  9
$DIMDSEP
 70
    46
  9
$DIMATFIT
 70
     3
  9
$DIMFRAC
 70
     0
  9
$DIMLDRBLK
  1

  9
$DIMLUNIT
 70
     2
  9
$DIMLWD
 70
    -2
  9
$DIMLWE
 70
    -2
  9
$DIMTMOVE
 70
     0
  9
$LUNITS
 70
     2
  9
$LUPREC
 70
     4
  9
$SKETCHINC
 40
1.0
  9
$FILLETRAD
 40
0.0
  9
$AUNITS
 70
     0
  9
$AUPREC
 70
     0
  9
$MENU
  1
.
  9
$ELEVATION
 40
0.0
  9
$PELEVATION
 40
0.0
  9
$THICKNESS
 40
0.0
  9
$LIMCHECK
 70
     0
  9
$CHAMFERA
 40
0.0
  9
$CHAMFERB
 40
0.0
  9
$CHAMFERC
 40
0.0
  9
$CHAMFERD
 40
0.0
  9
$SKPOLY
 70
     0
  9
$TDCREATE
 40
2457892.724375
  9
$TDUCREATE
 40
2457892.724375
  9
$TDUPDATE
 40
2457892.724375
  9
$TDUUPDATE
 40
2457892.724375
  9
$TDINDWG
 40
0.0
  9
$TDUSRTIMER
 40
0.0
  9
$USRTIMER
 70
     1
  9
$ANGBASE
 50
0.0
  9
$ANGDIR
 70
     0
  9
$PDMODE
 70
     0
  9
$PDSIZE
 40
0.0
  9
$PLINEWID
 40
0.0
  9
$SPLFRAME
 70
     0
  9
$SPLINETYPE
 70
     6
  9
$SPLINESEGS
 70
     8
  9
$HANDSEED
  5
25A
  9
$SURFTAB1
 70
     6
  9
$SURFTAB2
 70
     6
  9
$SURFTYPE
 70
     6
  9
$SURFU
 70
     6
  9
$SURFV
 70
     6
  9
$UCSBASE
  2

  9
$UCSNAME
  2

  9
$UCSORG
 10
0.0
 20
0.0
 30
0.0
  9
$UCSXDIR
 10
1.0
 20
0.0
 30
0.0
  9
$UCSYDIR
 10
0.0
 20
1.0
 30
0.0
  9
$UCSORTHOREF
  2

  9
$UCSORTHOVIEW
 70
     0
  9
$UCSORGTOP
 10
0.0
 20
0.0
 30
0.0
  9
$UCSORGBOTTOM
 10
0.0
 20
0.0
 30
0.0
  9
$UCSORGLEFT
 10
0.0
 20
0.0
 30
0.0
  9
$UCSORGRIGHT
 10
0.0
 20
0.0
 30
0.0
  9
$UCSORGFRONT
 10
0.0
 20
0.0
 30
0.0
  9
$UCSORGBACK
 10
0.0
 20
0.0
 30
0.0
  9
$PUCSBASE
  2

  9
$PUCSNAME
  2

  9
$PUCSORG
 10
0.0
 20
0.0
 30
0.0
  9
$PUCSXDIR
 10
1.0
 20
0.0
 30
0.0
  9
$PUCSYDIR
 10
0.0
 20
1.0
 30
0.0
  9
$PUCSORTHOREF
  2

  9
$PUCSORTHOVIEW
 70
     0
  9
$PUCSORGTOP
 10
0.0
 20
0.0
 30
0.0
  9
$PUCSORGBOTTOM
 10
0.0
 20
0.0
 30
0.0
  9
$PUCSORGLEFT
 10
0.0
 20
0.0
 30
0.0
  9
$PUCSORGRIGHT
 10
0.0
 20
0.0
 30
0.0
  9
$PUCSORGFRONT
 10
0.0
 20
0.0
 30
0.0
  9
$PUCSORGBACK
 10
0.0
 20
0.0
 30
0.0
  9
$USERI1
 70
     0
  9
$USERI2
 70
     0
  9
$USERI3
 70
     0
  9
$USERI4
 70
     0
  9
$USERI5
 70
     0
  9
$USERR1
 40
0.0
  9
$USERR2
 40
0.0
  9
$USERR3
 40
0.0
  9
$USERR4
 40
0.0
  9
$USERR5
 40
0.0
  9
$WORLDVIEW
 70
     1
  9
$SHADEDGE
 70
     3
  9
$SHADEDIF
 70
    70
  9
$MAXACTVP
 70
    16
  9
$PINSBASE
 10
0.0
 20
0.0
 30
0.0
  9
$PLIMCHECK
 70
     0
  9
$PEXTMIN
 10
1.00000000000000E+020
 20
1.00000000000000E+020
 30
1.00000000000000E+020
  9
$PEXTMAX
 10
-1.00000000000000E+020
 20
-1.00000000000000E+020
 30
-1.00000000000000E+020
  9
$PLIMMIN
 10
-50.0245666503906
 20
-72.7662200927734
  9
$PLIMMAX
 10
89.0046081542969
 20
95.0
  9
$UNITMODE
 70
     0
  9
$VISRETAIN
 70
     0
  9
$PLINEGEN
 70
     0
  9
$PSLTSCALE
 70
     0
  9
$TREEDEPTH
 70
  3020
  9
$CMLSTYLE
  2
STANDARD
  9
$CMLJUST
 70
     0
  9
$CMLSCALE
 40
1.0
  9
$PROXYGRAPHICS
 70
     1
  9
$MEASUREMENT
 70
     1
  9
$CELWEIGHT
370
    -3
  9
$ENDCAPS
280
     0
  9
$JOINSTYLE
280
     0
  9
$LWDISPLAY
290
     1
  9
$INSUNITS
 70
     0
  9
$HYPERLINKBASE
  1

  9
$STYLESHEET
  1

  9
$XEDIT
290
     1
  9
$CEPSNTYPE
380
     0
  9
$PSTYLEMODE
290
     1
  9
$FINGERPRINTGUID
  2
{6F25CFC2-5053-11D3-9BE9-00805F4AB38E}
  9
$VERSIONGUID
  2
{6F25CFC5-5053-11D3-9BE9-00805F4AB38E}
  9
$EXTNAMES
290
     1
  9
$PSVPSCALE
 40
0.0
  9
$OLESTARTUP
290
     0
  0
ENDSEC
  0
SECTION
  2
CLASSES
  0
CLASS
  1
LWPOLYLINE
  2
AcDbPolyline
  3
AutoCAD 2000
 90
    32768
280
     0
281
     1
  0
CLASS
  1
ACDBDICTIONARYWDFLT
  2
AcDbDictionaryWithDefault
  3
AutoCAD 2000
 90
        0
280
     0
281
     0
  0
CLASS
  1
DICTIONARYVAR
  2
AcDbDictionaryVar
  3
AutoCAD 2000
 90
        0
280
     0
281
     0
  0
CLASS
  1
ACDBPLACEHOLDER
  2
AcDbPlaceHolder
  3
AutoCAD 2000
 90
        0
280
     0
281
     1
  0
CLASS
  1
LAYOUT
  2
AcDbLayout
  3
AutoCAD 2000
 90
        0
280
     0
281
     1
  0
CLASS
  1
HATCH
  2
AcDbHatch
  3
AutoCAD 2000
 90
        0
280
     0
281
     1
  0
ENDSEC
  0
SECTION
  2
TABLES
  0
TABLE
  2
VPORT
  5
8
100
AcDbSymbolTable
 70
     1
  0
VPORT
  5
24F
330
0
100
AcDbSymbolTableRecord
100
AcDbViewportTableRecord
  2
*ACTIVE
 70
     0
 10
0.0
 20
0.0
 11
1.0
 21
1.0
 12
19.4900207519531
 22
11.1168899536133
 13
0.0
 23
0.0
 14
0.0
 24
0.0
 15
0.0
 25
0.0
 16
0.0
 26
0.0
 36
1.0
 17
0.0
 27
0.0
 37
0.0
 40
167.766220092773
 41
1.5
 42
50.0
 43
0.0
 44
0.0
 50
0.0
 51
0.0
 71
     0
 72
   100
 73
     1
 74
     1
 75
     0
 76
     0
 77
     0
 78
     0
281
     0
 65
     1
110
0.0
120
0.0
130
0.0
111
1.0
121
0.0
131
0.0
112
0.0
122
1.0
132
0.0
 79
     0
146
0.0
  0
ENDTAB
  0
TABLE
  2
LTYPE
  5
5
330
0
100
AcDbSymbolTable
 70
    20
  0
LTYPE
  5
250
330
5
100
AcDbSymbolTableRecord
100
AcDbLinetypeTableRecord
  2
BYBLOCK
 70
     0
  3

 72
    65
 73
     0
 40
0.0
  0
LTYPE
  5
251
330
5
100
AcDbSymbolTableRecord
100
AcDbLinetypeTableRecord
  2
BYLAYER
 70
     0
  3

 72
    65
 73
     0
 40
0.0
  0
LTYPE
  5
252
330
5
100
AcDbSymbolTableRecord
100
AcDbLinetypeTableRecord
  2
CONTINUOUS
 70
    64
  3
solid line
 72
    65
 73
     0
 40
0.0
  0
LTYPE
  5
253
330
0
100
AcDbSymbolTableRecord
100
AcDbLinetypeTableRecord
  2
CENTER
 70
    64
  3
--- - --- - --- - --- - --- -
 72
    65
 73
     4
 40
6.0
 49
3.0
 74
     0
 49
-1.0
 74
     0
 49
1.0
 74
     0
 49
-1.0
 74
     0
  0
ENDTAB
  0
TABLE
  2
LAYER
  5
2
330
0
100
AcDbSymbolTable
 70
    20
  0
LAYER
  5
254
330
2
100
AcDbSymbolTableRecord
100
AcDbLayerTableRecord
  2
0
 70
    64
 62
     0
  6
CONTINUOUS
370
    -3
390
243
  0
LAYER
  5
255
330
2
100
AcDbSymbolTableRecord
100
AcDbLayerTableRecord
  2
DEFPOINTS
 70
     0
 62
    -7
  6
CONTINUOUS
290
     0
370
    -3
390
243
  0
ENDTAB
  0
TABLE
  2
STYLE
  5
3
330
0
100
AcDbSymbolTable
 70
     4
  0
STYLE
  5
256
330
3
100
AcDbSymbolTableRecord
100
AcDbTextStyleTableRecord
  2
STANDARD
 70
    64
 40
0.0
 41
1.0
 50
0.0
 71
     0
 42
3.0
  3
monotxt
  4

  0
STYLE
  5
257
330
3
100
AcDbSymbolTableRecord
100
AcDbTextStyleTableRecord
  2
BIGFONT
 70
    64
 40
0.0
 41
1.0
 50
0.0
 71
     0
 42
3.0
  3
monotxt
  4
bigfont
  0
ENDTAB
  0
TABLE
  2
VIEW
  5
6
330
0
100
AcDbSymbolTable
 70
     0
  0
ENDTAB
  0
TABLE
  2
UCS
  5
7
330
0
100
AcDbSymbolTable
 70
     0
  0
ENDTAB
  0
TABLE
  2
APPID
  5
9
330
0
100
AcDbSymbolTable
 70
     1
  0
APPID
  5
258
330
9
100
AcDbSymbolTableRecord
100
AcDbRegAppTableRecord
  2
ACAD
 70
     0
  0
ENDTAB
  0
TABLE
  2
DIMSTYLE
  5
A
330
0
100
AcDbSymbolTable
 70
     8
100
AcDbDimStyleTable
 71
     0
  0
DIMSTYLE
105
259
330
A
100
AcDbSymbolTableRecord
100
AcDbDimStyleTableRecord
  2
ISO-25
 70
     0
  3

  4

  5

  6

  7

 40
1.0
 41
3.0
 42
1.0
 43
5.0
 44
2.0
 45
0.0
 46
5.0
 47
0.0
 48
0.0
140
3.0
141
2.0
142
0.0
143
0.0393700787401575
144
1.0
145
1.0
146
1.0
147
1.0
 71
     0
 72
     0
 73
     0
 74
     0
 75
     0
 76
     0
 77
     1
 78
     8
 79
     2
170
     0
171
     0
172
     1
173
     0
174
     0
175
     0
176
     0
177
     0
178
     0
179
     3
270
     2
271
     3
272
     3
273
     8
274
     4
340
257
275
     0
280
     0
281
     0
282
     0
283
     1
284
     1
285
     0
286
     0
287
     3
288
     0
  0
ENDTAB
  0
TABLE
  2
BLOCK_RECORD
  5
1
330
0
100
AcDbSymbolTable
 70
     2
  0
BLOCK_RECORD
  5
20
330
1
100
AcDbSymbolTableRecord
100
AcDbBlockTableRecord
  2
*MODEL_SPACE
340
244
  0
BLOCK_RECORD
  5
22
330
1
100
AcDbSymbolTableRecord
100
AcDbBlockTableRecord
  2
*PAPER_SPACE
340
245
  0
BLOCK_RECORD
  5
3F
330
1
100
AcDbSymbolTableRecord
100
AcDbBlockTableRecord
  2
_Open30
340
0
102
{BLKREFS
331
40
331
42
331
4F
331
53
331
1D1
331
1D3
331
1DF
331
1E1
331
1EE
331
1FA
331
1FE
331
215
331
217
331
223
331
227
331
233
331
235
102
}
  0
BLOCK_RECORD
  5
1F0
330
1
100
AcDbSymbolTableRecord
100
AcDbBlockTableRecord
  2
_None
340
0
102
{BLKREFS
102
}
  0
BLOCK_RECORD
  5
3C
330
1
100
AcDbSymbolTableRecord
100
AcDbBlockTableRecord
  2
*D1
340
0
102
{BLKREFS
331
4B
102
}
  0
BLOCK_RECORD
  5
4C
330
1
100
AcDbSymbolTableRecord
100
AcDbBlockTableRecord
  2
*D2
340
0
102
{BLKREFS
331
5A
102
}
  0
BLOCK_RECORD
  5
1CE
330
1
100
AcDbSymbolTableRecord
100
AcDbBlockTableRecord
  2
*D3
340
0
102
{BLKREFS
331
1DB
102
}
  0
BLOCK_RECORD
  5
1DC
330
1
100
AcDbSymbolTableRecord
100
AcDbBlockTableRecord
  2
*D4
340
0
102
{BLKREFS
331
1E9
102
}
  0
BLOCK_RECORD
  5
1EA
330
1
100
AcDbSymbolTableRecord
100
AcDbBlockTableRecord
  2
*D5
340
0
102
{BLKREFS
331
1F4
102
}
  0
BLOCK_RECORD
  5
1F6
330
1
100
AcDbSymbolTableRecord
100
AcDbBlockTableRecord
  2
*D6
340
0
102
{BLKREFS
331
203
102
}
  0
BLOCK_RECORD
  5
212
330
1
100
AcDbSymbolTableRecord
100
AcDbBlockTableRecord
  2
*D7
340
0
102
{BLKREFS
331
21F
102
}
  0
BLOCK_RECORD
  5
220
330
1
100
AcDbSymbolTableRecord
100
AcDbBlockTableRecord
  2
*D8
340
0
102
{BLKREFS
331
22F
102
}
  0
BLOCK_RECORD
  5
230
330
1
100
AcDbSymbolTableRecord
100
AcDbBlockTableRecord
  2
*D9
340
0
102
{BLKREFS
331
23D
102
}
  0
ENDTAB
  0
ENDSEC
  0
SECTION
  2
BLOCKS
  0
BLOCK
  5
21
330
20
100
AcDbEntity
  8
0
100
AcDbBlockBegin
  2
*MODEL_SPACE
 70
     0
 10
0.0
 20
0.0
 30
0.0
  3
*MODEL_SPACE
  1

  0
ENDBLK
  5
246
330
20
100
AcDbEntity
  8
0
100
AcDbBlockEnd
  0
BLOCK
  5
23
330
22
100
AcDbEntity
 67
     1
  8
0
100
AcDbBlockBegin
  2
*PAPER_SPACE
 70
     0
 10
0.0
 20
0.0
 30
0.0
  3
*PAPER_SPACE
  1

  0
ENDBLK
  5
247
330
22
100
AcDbEntity
 67
     1
  8
0
100
AcDbBlockEnd
  0
BLOCK
  5
248
330
3F
100
AcDbEntity
  8
0
100
AcDbBlockBegin
  2
_Open30
 70
     0
 10
0.0
 20
0.0
 30
0.0
  3
_Open30
  1

  0
LINE
  5
249
330
3F
100
AcDbEntity
  8
0
  6
ByBlock
 62
     0
100
AcDbLine
 10
-1.0
 20
0.26794919
 11
0.0
 21
0.0
  0
LINE
  5
24A
330
3F
100
AcDbEntity
  8
0
  6
ByBlock
 62
     0
100
AcDbLine
 10
0.0
 20
0.0
 11
-1.0
 21
-0.26794919
  0
LINE
  5
24B
330
3F
100
AcDbEntity
  8
0
  6
ByBlock
 62
     0
100
AcDbLine
 10
0.0
 20
0.0
 11
-1.0
 21
0.0
  0
ENDBLK
  5
24C
330
3F
100
AcDbEntity
  8
0
100
AcDbBlockEnd
  0
BLOCK
  5
24D
330
1F0
100
AcDbEntity
  8
0
100
AcDbBlockBegin
  2
_None
 70
     0
 10
0.0
 20
0.0
 30
0.0
  3
_None
  1

  0
ENDBLK
  5
24E
330
1F0
100
AcDbEntity
  8
0
100
AcDbBlockEnd
  0
BLOCK
  5
3D
330
3C
100
AcDbEntity
  8
0
100
AcDbBlockBegin
  2
*D1
 70
    65
 10
0.0
 20
0.0
  0
LINE
  5
3E
330
3C
100
AcDbEntity
  8
0
  6
CONTINUOUS
 62
     0
100
AcDbLine
 10
-34.7144432067871
 20
72.2337875366211
 11
-24.7144451141357
 21
72.2337875366211
  0
INSERT
  5
40
330
3C
100
AcDbEntity
  8
0
  6
CONTINUOUS
 62
     0
100
AcDbBlockReference
  2
_Open30
 10
-34.7144432067871
 20
72.2337875366211
 41
3.0
 42
3.0
 50
180.0
  0
LINE
  5
41
330
3C
100
AcDbEntity
  8
0
  6
CONTINUOUS
 62
     0
100
AcDbLine
 10
-14.7144451141357
 20
72.2337875366211
 11
-24.7144451141357
 21
72.2337875366211
  0
INSERT
  5
42
330
3C
100
AcDbEntity
  8
0
  6
CONTINUOUS
 62
     0
100
AcDbBlockReference
  2
_Open30
 10
-14.7144451141357
 20
72.2337875366211
 41
3.0
 42
3.0
 50
0.0
  0
LINE
  5
43
330
3C
100
AcDbEntity
  8
0
  6
CONTINUOUS
 62
     0
100
AcDbLine
 10
-34.7144432067871
 20
62.6836433410645
 11
-34.7144432067871
 21
74.2337875366211
  0
LINE
  5
44
330
3C
100
AcDbEntity
  8
0
  6
CONTINUOUS
 62
     0
100
AcDbLine
 10
-14.7144451141357
 20
63.5336532592773
 11
-14.7144451141357
 21
74.2337875366211
  0
MTEXT
  5
45
330
3C
100
AcDbEntity
  8
0
  6
CONTINUOUS
 62
     0
100
AcDbMText
 10
-32.1710662841797
 20
78.3431625366211
 40
3.0
 41
0.0
 11
1.0
 21
0.0
 71
     7
 72
     5
  7
STANDARD
  1
{\T0.979167;\W0.75;\Q15;Height of parts}
  0
MTEXT
  5
46
330
3C
100
AcDbEntity
  8
0
  6
CONTINUOUS
 62
     0
100
AcDbMText
 10
-32.1710662841797
 20
73.2337875366211
 40
3.0
 41
0.0
 11
1.0
 21
0.0
 71
     7
 72
     5
  7
STANDARD
  1
{\T0.979167;\W0.75;\Q15;Max 20}
  0
POINT
  5
47
330
3C
100
AcDbEntity
  8
DEFPOINTS
  6
BYBLOCK
 62
     0
100
AcDbPoint
 10
-34.714446239575
 20
62.3836486293174
  0
POINT
  5
48
100
AcDbEntity
  8
DEFPOINTS
  6
BYBLOCK
 62
     0
100
AcDbPoint
 10
-14.714446239575
 20
63.2336486293174
  0
POINT
  5
49
100
AcDbEntity
  8
DEFPOINTS
  6
BYBLOCK
 62
     0
100
AcDbPoint
 10
-14.714446239575
 20
72.2337837837838
  0
ENDBLK
  5
4A
330
3C
100
AcDbEntity
  8
0
100
AcDbBlockEnd
  0
BLOCK
  5
4D
330
4C
100
AcDbEntity
  8
0
100
AcDbBlockBegin
  2
*D2
 70
    65
 10
0.0
 20
0.0
  0
LINE
  5
4E
330
4C
100
AcDbEntity
  8
0
  6
CONTINUOUS
 62
     0
100
AcDbLine
 10
-36.3144454956055
 20
72.2337875366211
 11
-50.024543762207
 21
72.2337875366211
  0
INSERT
  5
4F
330
4C
100
AcDbEntity
  8
0
  6
CONTINUOUS
 62
     0
100
AcDbBlockReference
  2
_Open30
 10
-36.3144454956055
 20
72.2337875366211
 41
3.0
 42
3.0
 50
0.0
  0
LINE
  5
50
330
4C
100
AcDbEntity
  8
0
  6
CONTINUOUS
 62
     0
100
AcDbLine
 10
-36.3144454956055
 20
72.2337875366211
 11
-35.5144538879395
 21
72.2337875366211
  0
LINE
  5
51
330
4C
100
AcDbEntity
  8
0
  6
CONTINUOUS
 62
     0
100
AcDbLine
 10
-34.7144432067871
 20
72.2337875366211
 11
-35.5144462585449
 21
72.2337875366211
  0
LINE
  5
52
330
4C
100
AcDbEntity
  8
0
  6
CONTINUOUS
 62
     0
100
AcDbLine
 10
-34.7144432067871
 20
72.2337875366211
 11
-29.7144432067871
 21
72.2337875366211
  0
INSERT
  5
53
330
4C
100
AcDbEntity
  8
0
  6
CONTINUOUS
 62
     0
100
AcDbBlockReference
  2
_Open30
 10
-34.7144432067871
 20
72.2337875366211
 41
3.0
 42
3.0
 50
180.0
  0
LINE
  5
54
330
4C
100
AcDbEntity
  8
0
  6
CONTINUOUS
 62
     0
100
AcDbLine
 10
-36.3144454956055
 20
63.5336532592773
 11
-36.3144454956055
 21
74.2337875366211
  0
MTEXT
  5
55
330
4C
100
AcDbEntity
  8
0
  6
CONTINUOUS
 62
     0
100
AcDbMText
 10
-49.0245666503906
 20
73.2337875366211
 40
3.0
 41
0.0
 11
1.0
 21
0.0
 71
     7
 72
     5
  7
STANDARD
  1
{\T0.979167;\W0.75;\Q15;1.6}
  0
POINT
  5
56
330
4C
100
AcDbEntity
  8
DEFPOINTS
  6
BYBLOCK
 62
     0
100
AcDbPoint
 10
-36.314446239575
 20
63.2336486293174
  0
POINT
  5
57
100
AcDbEntity
  8
DEFPOINTS
  6
BYBLOCK
 62
     0
100
AcDbPoint
 10
-34.714446239575
 20
69.2336486293174
  0
POINT
  5
58
100
AcDbEntity
  8
DEFPOINTS
  6
BYBLOCK
 62
     0
100
AcDbPoint
 10
-34.714446239575
 20
72.2337837837838
  0
ENDBLK
  5
59
330
4C
100
AcDbEntity
  8
0
100
AcDbBlockEnd
  0
BLOCK
  5
1CF
330
1CE
100
AcDbEntity
  8
0
100
AcDbBlockBegin
  2
*D3
 70
    65
 10
0.0
 20
0.0
  0
LINE
  5
1D0
330
1CE
100
AcDbEntity
  8
0
  6
CONTINUOUS
 62
     0
100
AcDbLine
 10
13.6855535507202
 20
90.0
 11
38.6855545043945
 21
90.0
  0
INSERT
  5
1D1
330
1CE
100
AcDbEntity
  8
0
  6
CONTINUOUS
 62
     0
100
AcDbBlockReference
  2
_Open30
 10
13.6855535507202
 20
90.0
 41
3.0
 42
3.0
 50
180.0
  0
LINE
  5
1D2
330
1CE
100
AcDbEntity
  8
0
  6
CONTINUOUS
 62
     0
100
AcDbLine
 10
63.6855545043945
 20
90.0
 11
38.6855545043945
 21
90.0
  0
INSERT
  5
1D3
330
1CE
100
AcDbEntity
  8
0
  6
CONTINUOUS
 62
     0
100
AcDbBlockReference
  2
_Open30
 10
63.6855545043945
 20
90.0
 41
3.0
 42
3.0
 50
0.0
  0
LINE
  5
1D4
330
1CE
100
AcDbEntity
  8
0
  6
CONTINUOUS
 62
     0
100
AcDbLine
 10
13.6855535507202
 20
60.5339241027832
 11
13.6855535507202
 21
92.0
  0
LINE
  5
1D5
330
1CE
100
AcDbEntity
  8
0
  6
CONTINUOUS
 62
     0
100
AcDbLine
 10
63.6855545043945
 20
60.5336532592773
 11
63.6855545043945
 21
92.0
  0
MTEXT
  5
1D6
330
1CE
100
AcDbEntity
  8
0
  6
CONTINUOUS
 62
     0
100
AcDbMText
 10
36.4320640563965
 20
91.0
 40
3.0
 41
0.0
 11
1.0
 21
0.0
 71
     7
 72
     5
  7
STANDARD
  1
{\T0.979167;\W0.75;\Q15;50}
  0
POINT
  5
1D7
330
1CE
100
AcDbEntity
  8
DEFPOINTS
  6
BYBLOCK
 62
     0
100
AcDbPoint
 10
13.6855537604254
 20
60.2339189382502
  0
POINT
  5
1D8
100
AcDbEntity
  8
DEFPOINTS
  6
BYBLOCK
 62
     0
100
AcDbPoint
 10
63.6855537604254
 20
60.2336486293174
  0
POINT
  5
1D9
100
AcDbEntity
  8
DEFPOINTS
  6
BYBLOCK
 62
     0
100
AcDbPoint
 10
63.6855537604254
 20
90.0
  0
ENDBLK
  5
1DA
330
1CE
100
AcDbEntity
  8
0
100
AcDbBlockEnd
  0
BLOCK
  5
1DD
330
1DC
100
AcDbEntity
  8
0
100
AcDbBlockBegin
  2
*D4
 70
    65
 10
0.0
 20
0.0
  0
LINE
  5
1DE
330
1DC
100
AcDbEntity
  8
0
  6
CONTINUOUS
 62
     0
100
AcDbLine
 10
85.0
 20
62.2336502075195
 11
85.0
 21
7.23364639282227
  0
INSERT
  5
1DF
330
1DC
100
AcDbEntity
  8
0
  6
CONTINUOUS
 62
     0
100
AcDbBlockReference
  2
_Open30
 10
85.0
 20
62.2336502075195
 41
3.0
 42
3.0
 50
90.0
  0
LINE
  5
1E0
330
1DC
100
AcDbEntity
  8
0
  6
CONTINUOUS
 62
     0
100
AcDbLine
 10
85.0
 20
-47.7663497924805
 11
85.0
 21
7.23364639282227
  0
INSERT
  5
1E1
330
1DC
100
AcDbEntity
  8
0
  6
CONTINUOUS
 62
     0
100
AcDbBlockReference
  2
_Open30
 10
85.0
 20
-47.7663497924805
 41
3.0
 42
3.0
 50
270.0
  0
LINE
  5
1E2
330
1DC
100
AcDbEntity
  8
0
  6
CONTINUOUS
 62
     0
100
AcDbLine
 10
61.9855537414551
 20
62.2336502075195
 11
87.0
 21
62.2336502075195
  0
LINE
  5
1E3
330
1DC
100
AcDbEntity
  8
0
  6
CONTINUOUS
 62
     0
100
AcDbLine
 10
61.9855537414551
 20
-47.7663497924805
 11
87.0
 21
-47.7663497924805
  0
MTEXT
  5
1E4
330
1DC
100
AcDbEntity
  8
0
  6
CONTINUOUS
 62
     0
100
AcDbMText
 10
84.0
 20
3.87859964370728
 40
3.0
 41
0.0
 11
6.12323399573677E-017
 21
1.0
 71
     7
 72
     5
  7
STANDARD
  1
{\T0.979167;\W0.75;\Q15;110}
  0
POINT
  5
1E5
330
1DC
100
AcDbEntity
  8
DEFPOINTS
  6
BYBLOCK
 62
     0
100
AcDbPoint
 10
61.6855537604254
 20
62.2336486293174
  0
POINT
  5
1E6
100
AcDbEntity
  8
DEFPOINTS
  6
BYBLOCK
 62
     0
100
AcDbPoint
 10
61.6855537604254
 20
-47.7663513706826
  0
POINT
  5
1E7
100
AcDbEntity
  8
DEFPOINTS
  6
BYBLOCK
 62
     0
100
AcDbPoint
 10
85.0
 20
-47.7663513706826
  0
ENDBLK
  5
1E8
330
1DC
100
AcDbEntity
  8
0
100
AcDbBlockEnd
  0
BLOCK
  5
1EB
330
1EA
100
AcDbEntity
  8
0
100
AcDbBlockBegin
  2
*D5
 70
    65
 10
0.0
 20
0.0
  0
LINE
  5
1EC
330
1EA
100
AcDbEntity
  8
0
  6
CONTINUOUS
 62
     0
100
AcDbLine
 10
58.3669967651367
 20
-43.927806854248
 11
63.6851348876953
 21
-57.7662162780762
  0
LINE
  5
1ED
330
1EA
100
AcDbEntity
  8
0
  6
CONTINUOUS
 62
     0
100
AcDbLine
 10
63.6851348876953
 20
-57.7662162780762
 11
84.9108581542969
 21
-57.7662162780762
  0
INSERT
  5
1EE
330
1EA
100
AcDbEntity
  8
0
  6
CONTINUOUS
 62
     0
100
AcDbBlockReference
  2
_Open30
 10
58.3669967651367
 20
-43.927806854248
 41
3.0
 42
3.0
 50
111.0
  0
MTEXT
  5
1EF
330
1EA
100
AcDbEntity
  8
0
  6
CONTINUOUS
 62
     0
100
AcDbMText
 10
64.6851348876953
 20
-56.7662162780762
 40
3.0
 41
0.0
 11
1.0
 21
0.0
 71
     7
 72
     5
  7
BIGFONT
  1
{\T0.971841;\W0.801187;\Q15;2-φ3.2TH}
  0
POINT
  5
1F1
100
AcDbEntity
  8
DEFPOINTS
  6
BYBLOCK
 62
     0
100
AcDbPoint
 10
57.1114574241426
 20
-40.6607603414375
  0
POINT
  5
1F2
100
AcDbEntity
  8
DEFPOINTS
  6
BYBLOCK
 62
     0
100
AcDbPoint
 10
58.366995046586
 20
-43.9278118069993
  0
ENDBLK
  5
1F3
330
1EA
100
AcDbEntity
  8
0
100
AcDbBlockEnd
  0
BLOCK
  5
1F7
330
1F6
100
AcDbEntity
  8
0
100
AcDbBlockBegin
  2
*D6
 70
    65
 10
0.0
 20
0.0
  0
LINE
  5
1F8
330
1F6
100
AcDbEntity
  8
0
  6
CONTINUOUS
 62
     0
100
AcDbLine
 10
59.9648742675781
 20
59.427734375
 11
73.6851348876953
 21
72.2337875366211
  0
LINE
  5
1F9
330
1F6
100
AcDbEntity
  8
0
  6
CONTINUOUS
 62
     0
100
AcDbLine
 10
73.6851348876953
 20
72.2337875366211
 11
89.0046081542969
 21
72.2337875366211
  0
INSERT
  5
1FA
330
1F6
100
AcDbEntity
  8
0
  6
CONTINUOUS
 62
     0
100
AcDbBlockReference
  2
_Open30
 10
59.9648742675781
 20
59.427734375
 41
3.0
 42
3.0
 50
223.0
  0
LINE
  5
1FB
330
1F6
100
AcDbEntity
  8
0
  6
CONTINUOUS
 62
     0
100
AcDbLine
 10
59.9648742675781
 20
59.427734375
 11
58.6855545043945
 21
58.2336540222168
  0
LINE
  5
1FC
330
1F6
100
AcDbEntity
  8
0
  6
CONTINUOUS
 62
     0
100
AcDbLine
 10
57.4062347412109
 20
57.0395622253418
 11
58.6855545043945
 21
58.233642578125
  0
LINE
  5
1FD
330
1F6
100
AcDbEntity
  8
0
  6
CONTINUOUS
 62
     0
100
AcDbLine
 10
57.4062347412109
 20
57.0395622253418
 11
53.7510147094727
 21
53.6279029846191
  0
INSERT
  5
1FE
330
1F6
100
AcDbEntity
  8
0
  6
CONTINUOUS
 62
     0
100
AcDbBlockReference
  2
_Open30
 10
57.4062347412109
 20
57.0395622253418
 41
3.0
 42
3.0
 50
43.0
  0
MTEXT
  5
1FF
330
1F6
100
AcDbEntity
  8
0
  6
CONTINUOUS
 62
     0
100
AcDbMText
 10
74.6851348876953
 20
73.2337875366211
 40
3.0
 41
0.0
 11
1.0
 21
0.0
 71
     7
 72
     5
  7
STANDARD
  1
{\W0.734694;\Q15;4-%%c3.2}
  0
POINT
  5
200
100
AcDbEntity
  8
DEFPOINTS
  6
BYBLOCK
 62
     0
100
AcDbPoint
 10
57.4062294139188
 20
57.0395677206535
  0
POINT
  5
201
100
AcDbEntity
  8
DEFPOINTS
  6
BYBLOCK
 62
     0
100
AcDbPoint
 10
59.9648781069319
 20
59.4277295379813
  0
ENDBLK
  5
202
330
1F6
100
AcDbEntity
  8
0
100
AcDbBlockEnd
  0
BLOCK
  5
213
330
212
100
AcDbEntity
  8
0
100
AcDbBlockBegin
  2
*D7
 70
    65
 10
0.0
 20
0.0
  0
LINE
  5
214
330
212
100
AcDbEntity
  8
0
  6
CONTINUOUS
 62
     0
100
AcDbLine
 10
18.6855545043945
 20
80.0
 11
38.6855545043945
 21
80.0
  0
INSERT
  5
215
330
212
100
AcDbEntity
  8
0
  6
CONTINUOUS
 62
     0
100
AcDbBlockReference
  2
_Open30
 10
18.6855545043945
 20
80.0
 41
3.0
 42
3.0
 50
180.0
  0
LINE
  5
216
330
212
100
AcDbEntity
  8
0
  6
CONTINUOUS
 62
     0
100
AcDbLine
 10
58.6855545043945
 20
80.0
 11
38.6855545043945
 21
80.0
  0
INSERT
  5
217
330
212
100
AcDbEntity
  8
0
  6
CONTINUOUS
 62
     0
100
AcDbBlockReference
  2
_Open30
 10
58.6855545043945
 20
80.0
 41
3.0
 42
3.0
 50
0.0
  0
LINE
  5
218
330
212
100
AcDbEntity
  8
0
  6
CONTINUOUS
 62
     0
100
AcDbLine
 10
18.6855545043945
 20
60.2839202880859
 11
18.6855545043945
 21
82.0
  0
LINE
  5
219
330
212
100
AcDbEntity
  8
0
  6
CONTINUOUS
 62
     0
100
AcDbLine
 10
58.6855545043945
 20
62.5336494445801
 11
58.6855545043945
 21
82.0
  0
MTEXT
  5
21A
330
212
100
AcDbEntity
  8
0
  6
CONTINUOUS
 62
     0
100
AcDbMText
 10
36.4320678710938
 20
81.0
 40
3.0
 41
0.0
 11
1.0
 21
0.0
 71
     7
 72
     5
  7
STANDARD
  1
{\T0.979167;\W0.75;\Q15;40}
  0
POINT
  5
21B
330
212
100
AcDbEntity
  8
DEFPOINTS
  6
BYBLOCK
 62
     0
100
AcDbPoint
 10
18.6855537604254
 20
59.9839189382502
  0
POINT
  5
21C
100
AcDbEntity
  8
DEFPOINTS
  6
BYBLOCK
 62
     0
100
AcDbPoint
 10
58.6855537604254
 20
62.2336486293174
  0
POINT
  5
21D
100
AcDbEntity
  8
DEFPOINTS
  6
BYBLOCK
 62
     0
100
AcDbPoint
 10
58.6855537604254
 20
80.0
  0
ENDBLK
  5
21E
330
212
100
AcDbEntity
  8
0
100
AcDbBlockEnd
  0
BLOCK
  5
221
330
220
100
AcDbEntity
  8
0
100
AcDbBlockBegin
  2
*D8
 70
    65
 10
0.0
 20
0.0
  0
LINE
  5
222
330
220
100
AcDbEntity
  8
0
  6
CONTINUOUS
 62
     0
100
AcDbLine
 10
18.6855545043945
 20
70.0
 11
13.6855545043945
 21
70.0
  0
INSERT
  5
223
330
220
100
AcDbEntity
  8
0
  6
CONTINUOUS
 62
     0
100
AcDbBlockReference
  2
_Open30
 10
18.6855545043945
 20
70.0
 41
3.0
 42
3.0
 50
0.0
  0
LINE
  5
224
330
220
100
AcDbEntity
  8
0
  6
CONTINUOUS
 62
     0
100
AcDbLine
 10
18.6855545043945
 20
70.0
 11
22.1855545043945
 21
70.0
  0
LINE
  5
225
330
220
100
AcDbEntity
  8
0
  6
CONTINUOUS
 62
     0
100
AcDbLine
 10
25.6855545043945
 20
70.0
 11
22.1855545043945
 21
70.0
  0
LINE
  5
226
330
220
100
AcDbEntity
  8
0
  6
CONTINUOUS
 62
     0
100
AcDbLine
 10
25.6855545043945
 20
70.0
 11
30.6855545043945
 21
70.0
  0
INSERT
  5
227
330
220
100
AcDbEntity
  8
0
  6
CONTINUOUS
 62
     0
100
AcDbBlockReference
  2
_Open30
 10
25.6855545043945
 20
70.0
 41
3.0
 42
3.0
 50
180.0
  0
LINE
  5
228
330
220
100
AcDbEntity
  8
0
  6
CONTINUOUS
 62
     0
100
AcDbLine
 10
18.6855545043945
 20
62.5339202880859
 11
18.6855545043945
 21
72.0
  0
LINE
  5
229
330
220
100
AcDbEntity
  8
0
  6
CONTINUOUS
 62
     0
100
AcDbLine
 10
25.6855545043945
 20
62.5336494445801
 11
25.6855545043945
 21
72.0
  0
MTEXT
  5
22A
330
220
100
AcDbEntity
  8
0
  6
CONTINUOUS
 62
     0
100
AcDbMText
 10
21.0336303710938
 20
71.0
 40
3.0
 41
0.0
 11
1.0
 21
0.0
 71
     7
 72
     5
  7
STANDARD
  1
{\T0.979167;\W0.75;\Q15;7}
  0
POINT
  5
22B
330
220
100
AcDbEntity
  8
DEFPOINTS
  6
BYBLOCK
 62
     0
100
AcDbPoint
 10
18.6855545043945
 20
62.2339189382502
  0
POINT
  5
22C
100
AcDbEntity
  8
DEFPOINTS
  6
BYBLOCK
 62
     0
100
AcDbPoint
 10
25.6855537604254
 20
62.2336486293174
  0
POINT
  5
22D
100
AcDbEntity
  8
DEFPOINTS
  6
BYBLOCK
 62
     0
100
AcDbPoint
 10
25.6855537604254
 20
70.0
  0
ENDBLK
  5
22E
330
220
100
AcDbEntity
  8
0
100
AcDbBlockEnd
  0
BLOCK
  5
231
330
230
100
AcDbEntity
  8
0
100
AcDbBlockBegin
  2
*D9
 70
    65
 10
0.0
 20
0.0
  0
LINE
  5
232
330
230
100
AcDbEntity
  8
0
  6
CONTINUOUS
 62
     0
100
AcDbLine
 10
75.0
 20
-43.7663497924805
 11
75.0
 21
7.23365020751953
  0
INSERT
  5
233
330
230
100
AcDbEntity
  8
0
  6
CONTINUOUS
 62
     0
100
AcDbBlockReference
  2
_Open30
 10
75.0
 20
-43.7663497924805
 41
3.0
 42
3.0
 50
270.0
  0
LINE
  5
234
330
230
100
AcDbEntity
  8
0
  6
CONTINUOUS
 62
     0
100
AcDbLine
 10
75.0
 20
58.2336502075195
 11
75.0
 21
7.23365020751953
  0
INSERT
  5
235
330
230
100
AcDbEntity
  8
0
  6
CONTINUOUS
 62
     0
100
AcDbBlockReference
  2
_Open30
 10
75.0
 20
58.2336502075195
 41
3.0
 42
3.0
 50
90.0
  0
LINE
  5
236
330
230
100
AcDbEntity
  8
0
  6
CONTINUOUS
 62
     0
100
AcDbLine
 10
60.7355537414551
 20
-43.7663497924805
 11
77.0
 21
-43.7663497924805
  0
LINE
  5
237
330
230
100
AcDbEntity
  8
0
  6
CONTINUOUS
 62
     0
100
AcDbLine
 10
60.7355537414551
 20
58.2336502075195
 11
77.0
 21
58.2336502075195
  0
MTEXT
  5
238
330
230
100
AcDbEntity
  8
0
  6
CONTINUOUS
 62
     0
100
AcDbMText
 10
74.0
 20
3.87860035896301
 40
3.0
 41
0.0
 11
6.12323399573677E-017
 21
1.0
 71
     7
 72
     5
  7
STANDARD
  1
{\T0.979167;\W0.75;\Q15;102}
  0
POINT
  5
239
330
230
100
AcDbEntity
  8
DEFPOINTS
  6
BYBLOCK
 62
     0
100
AcDbPoint
 10
60.4355537604254
 20
-43.7663513706826
  0
POINT
  5
23A
100
AcDbEntity
  8
DEFPOINTS
  6
BYBLOCK
 62
     0
100
AcDbPoint
 10
60.4355537604254
 20
58.2336486293174
  0
POINT
  5
23B
100
AcDbEntity
  8
DEFPOINTS
  6
BYBLOCK
 62
     0
100
AcDbPoint
 10
75.0
 20
58.2336486293174
  0
ENDBLK
  5
23C
330
230
100
AcDbEntity
  8
0
100
AcDbBlockEnd
  0
ENDSEC
  0
SECTION
  2
ENTITIES
  0
CIRCLE
  5
24
330
20
100
AcDbEntity
  8
0
  6
CONTINUOUS
100
AcDbCircle
 10
18.6855537604254
 20
-43.7663513706826
 40
1.75
  0
CIRCLE
  5
25
330
20
100
AcDbEntity
  8
0
  6
CONTINUOUS
100
AcDbCircle
 10
58.6855537604254
 20
-43.7663513706826
 40
1.75
  0
LINE
  5
26
330
20
100
AcDbEntity
  8
0
  6
CENTER
100
AcDbLine
 10
58.6855537604254
 20
-46.5163513706826
 11
58.6855537604254
 21
-41.0163513706826
  0
LINE
  5
27
330
20
100
AcDbEntity
  8
0
  6
CENTER
100
AcDbLine
 10
55.9355537604254
 20
-43.7663513706826
 11
61.4355537604254
 21
-43.7663513706826
  0
LINE
  5
28
330
20
100
AcDbEntity
  8
0
  6
CENTER
100
AcDbLine
 10
18.6855537604254
 20
-46.5163513706826
 11
18.6855537604254
 21
-41.0163513706826
  0
LINE
  5
29
330
20
100
AcDbEntity
  8
0
  6
CENTER
100
AcDbLine
 10
15.9355537604254
 20
-43.7663513706826
 11
21.4355537604254
 21
-43.7663513706826
  0
CIRCLE
  5
2A
330
20
100
AcDbEntity
  8
0
  6
CONTINUOUS
100
AcDbCircle
 10
18.6855537604254
 20
-43.7663513706826
 40
3.0
  0
CIRCLE
  5
2B
330
20
100
AcDbEntity
  8
0
  6
CONTINUOUS
100
AcDbCircle
 10
58.6855537604254
 20
-43.7663513706826
 40
3.0
  0
LINE
  5
2C
330
20
100
AcDbEntity
  8
0
  6
CONTINUOUS
100
AcDbLine
 10
-34.714446239575
 20
-47.7663513706826
 11
-34.714446239575
 21
62.2336486293174
  0
LINE
  5
2D
330
20
100
AcDbEntity
  8
0
  6
CONTINUOUS
100
AcDbLine
 10
-36.314446239575
 20
-47.7663513706826
 11
-36.314446239575
 21
62.2336486293174
  0
MTEXT
  5
2E
330
20
100
AcDbEntity
  8
0
  6
CONTINUOUS
100
AcDbMText
 10
4.68513488769531
 20
-71.7662200927734
 40
5.0
 41
0.0
 11
1.0
 21
0.0
 71
     7
 72
     5
  7
STANDARD
  1
{\T0.979167;\W0.75;\Q15;Parts mounting side}
  0
MTEXT
  5
2F
330
20
100
AcDbEntity
  8
0
  6
CONTINUOUS
100
AcDbMText
 10
-35.3148651123047
 20
-71.7662200927734
 40
5.0
 41
0.0
 11
1.0
 21
0.0
 71
     7
 72
     5
  7
STANDARD
  1
{\T0.979167;\W0.75;\Q15;Side}
  0
LINE
  5
30
330
20
100
AcDbEntity
  8
0
  6
CONTINUOUS
100
AcDbLine
 10
-34.714446239575
 20
29.8336486293174
 11
-24.714446239575
 21
29.8336486293174
  0
LINE
  5
31
330
20
100
AcDbEntity
  8
0
  6
CONTINUOUS
100
AcDbLine
 10
-34.714446239575
 20
34.2336486293174
 11
-24.714446239575
 21
34.2336486293174
  0
LINE
  5
32
330
20
100
AcDbEntity
  8
0
  6
CONTINUOUS
100
AcDbLine
 10
-34.714446239575
 20
37.2336486293174
 11
-24.714446239575
 21
37.2336486293174
  0
LINE
  5
33
330
20
100
AcDbEntity
  8
0
  6
CONTINUOUS
100
AcDbLine
 10
-34.714446239575
 20
41.6336486293174
 11
-24.714446239575
 21
41.6336486293174
  0
LINE
  5
34
330
20
100
AcDbEntity
  8
0
  6
CONTINUOUS
100
AcDbLine
 10
-24.714446239575
 20
29.8336486293174
 11
-24.714446239575
 21
34.2336486293174
  0
LINE
  5
35
330
20
100
AcDbEntity
  8
0
  6
CONTINUOUS
100
AcDbLine
 10
-24.714446239575
 20
37.2336486293174
 11
-24.714446239575
 21
41.6336486293174
  0
CIRCLE
  5
36
330
20
100
AcDbEntity
  8
0
  6
CONTINUOUS
100
AcDbCircle
 10
-27.014446239575
 20
30.9336486293174
 40
1.1225
  0
CIRCLE
  5
37
330
20
100
AcDbEntity
  8
0
  6
CONTINUOUS
100
AcDbCircle
 10
-27.014446239575
 20
38.3336486293174
 40
1.1225
  0
LINE
  5
38
330
20
100
AcDbEntity
  8
0
  6
CONTINUOUS
100
AcDbLine
 10
-31.214446239575
 20
43.6336486293174
 11
-34.714446239575
 21
43.6336486293174
  0
LINE
  5
39
330
20
100
AcDbEntity
  8
0
  6
CONTINUOUS
100
AcDbLine
 10
-32.214446239575
 20
49.6836486293174
 11
-33.714446239575
 21
49.6836486293174
  0
LINE
  5
3A
330
20
100
AcDbEntity
  8
0
  6
CONTINUOUS
100
AcDbLine
 10
-31.214446239575
 20
52.2336486293174
 11
-34.714446239575
 21
52.2336486293174
  0
LINE
  5
3B
330
20
100
AcDbEntity
  8
0
  6
CONTINUOUS
100
AcDbLine
 10
-31.214446239575
 20
43.6336486293174
 11
-31.214446239575
 21
52.2336486293174
  0
DIMENSION
  5
4B
330
20
100
AcDbEntity
  8
0
  6
CONTINUOUS
100
AcDbDimension
  2
*D1
 10
-14.714446239575
 20
72.2337837837838
 11
-15.5972671508789
 21
72.2337875366211
 70
    32
  1
{\T0.979167;\W0.75;\Q15;<>}
 42
20.0
  3
ISO-25
100
AcDbAlignedDimension
 13
-34.714446239575
 23
62.3836486293174
 14
-14.714446239575
 24
63.2336486293174
 50
0.0
100
AcDbRotatedDimension
1001
ACAD
1000
DSTYLE
1002
{
1070
     3
1000
Height of parts Max <>
1070
   342
1005
3F
1002
}
  0
DIMENSION
  5
5A
330
20
100
AcDbEntity
  8
0
  6
CONTINUOUS
100
AcDbDimension
  2
*D2
 10
-34.714446239575
 20
72.2337837837838
 11
-45.6695156097412
 21
72.2337875366211
 70
    32
  1
{\T0.979167;\W0.75;\Q15;<>}
 42
1.59999999999999
  3
ISO-25
100
AcDbAlignedDimension
 13
-36.314446239575
 23
63.2336486293174
 14
-34.714446239575
 24
69.2336486293174
 50
0.0
100
AcDbRotatedDimension
1001
ACAD
1000
DSTYLE
1002
{
1070
    76
1070
     1
1070
   280
1070
     1
1070
   342
1005
3F
1002
}
  0
LINE
  5
5B
330
20
100
AcDbEntity
  8
0
  6
CENTER
100
AcDbLine
 10
18.6855537604254
 20
55.4836486293174
 11
18.6855537604254
 21
60.9836486293174
  0
LINE
  5
5C
330
20
100
AcDbEntity
  8
0
  6
CENTER
100
AcDbLine
 10
15.9355537604254
 20
58.2336486293174
 11
21.4355537604254
 21
58.2336486293174
  0
MTEXT
  5
5D
330
20
100
AcDbEntity
  8
0
  6
CONTINUOUS
100
AcDbMText
 10
19.8631343841553
 20
37.7336463928223
 40
3.0
 41
0.0
 11
1.0
 21
0.0
 71
     7
 72
     5
  7
STANDARD
  1
{\T0.916667;\W0.75;VR1}
  0
MTEXT
  5
5E
330
20
100
AcDbEntity
  8
0
  6
CONTINUOUS
100
AcDbMText
 10
14.4749746322632
 20
33.8834533691406
 40
1.5
 41
0.0
 11
-1.83697019872103E-016
 21
-1.0
 71
     7
 72
     5
  7
STANDARD
  1
{\T0.916667;\W0.75;SPAN}
  0
MTEXT
  5
5F
330
20
100
AcDbEntity
  8
0
  6
CONTINUOUS
100
AcDbMText
 10
19.8631343841553
 20
30.3336429595947
 40
3.0
 41
0.0
 11
1.0
 21
0.0
 71
     7
 72
     5
  7
STANDARD
  1
{\T0.916667;\W0.75;VR2}
  0
LINE
  5
60
330
20
100
AcDbEntity
  8
0
  6
CONTINUOUS
100
AcDbLine
 10
18.2055537604254
 20
34.2336486293174
 11
28.2055537604254
 21
34.2336486293174
  0
LINE
  5
61
330
20
100
AcDbEntity
  8
0
  6
CONTINUOUS
100
AcDbLine
 10
16.6855537604254
 20
32.0786486293174
 11
18.2055537604254
 21
32.0786486293174
  0
LINE
  5
62
330
20
100
AcDbEntity
  8
0
  6
CONTINUOUS
100
AcDbLine
 10
18.2055537604254
 20
34.2336486293174
 11
18.2055537604254
 21
29.8336486293174
  0
LINE
  5
63
330
20
100
AcDbEntity
  8
0
  6
CONTINUOUS
100
AcDbLine
 10
28.2055537604254
 20
34.2336486293174
 11
28.2055537604254
 21
29.8336486293174
  0
LINE
  5
64
330
20
100
AcDbEntity
  8
0
  6
CONTINUOUS
100
AcDbLine
 10
18.2055537604254
 20
41.6336486293174
 11
28.2055537604254
 21
41.6336486293174
  0
LINE
  5
65
330
20
100
AcDbEntity
  8
0
  6
CONTINUOUS
100
AcDbLine
 10
16.6855537604254
 20
39.4786486293174
 11
18.2055537604254
 21
39.4786486293174
  0
LINE
  5
66
330
20
100
AcDbEntity
  8
0
  6
CONTINUOUS
100
AcDbLine
 10
18.2055537604254
 20
41.6336486293174
 11
18.2055537604254
 21
37.2336486293174
  0
LINE
  5
67
330
20
100
AcDbEntity
  8
0
  6
CONTINUOUS
100
AcDbLine
 10
28.2055537604254
 20
41.6336486293174
 11
28.2055537604254
 21
37.2336486293174
  0
MTEXT
  5
68
330
20
100
AcDbEntity
  8
0
  6
CONTINUOUS
100
AcDbMText
 10
14.4749746322632
 20
40.8649520874023
 40
1.5
 41
0.0
 11
-1.83697019872103E-016
 21
-1.0
 71
     7
 72
     5
  7
STANDARD
  1
{\T0.916667;\W0.75;ZERO}
  0
MTEXT
  5
69
330
20
100
AcDbEntity
  8
0
  6
CONTINUOUS
100
AcDbMText
 10
24.4870052337646
 20
51.0273742675781
 40
2.0
 41
0.0
 11
-1.83697019872103E-016
 21
-1.0
 71
     7
 72
     5
  7
STANDARD
  1
{\T0.916667;\W0.75;CALIB}
  0
LINE
  5
6A
330
20
100
AcDbEntity
  8
0
  6
CONTINUOUS
100
AcDbLine
 10
18.7055537604254
 20
52.2336486293174
 11
22.2055537604254
 21
52.2336486293174
  0
LINE
  5
6B
330
20
100
AcDbEntity
  8
0
  6
CONTINUOUS
100
AcDbLine
 10
22.2055537604254
 20
52.2336486293174
 11
22.2055537604254
 21
43.6336486293174
  0
LINE
  5
6C
330
20
100
AcDbEntity
  8
0
  6
CONTINUOUS
100
AcDbLine
 10
18.7055537604254
 20
52.2336486293174
 11
18.7055537604254
 21
43.6336486293174
  0
CIRCLE
  5
6D
330
20
100
AcDbEntity
  8
0
  6
CONTINUOUS
100
AcDbCircle
 10
22.2055537604254
 20
50.4336486293174
 40
0.4
  0
MTEXT
  5
6E
330
20
100
AcDbEntity
  8
0
  6
CONTINUOUS
100
AcDbMText
 10
19.5096054077148
 20
47.5117530822754
 40
1.0
 41
0.0
 11
1.0
 21
0.0
 71
     7
 72
     5
  7
STANDARD
  1
{\T0.916667;\W0.75;2}
  0
MTEXT
  5
6F
330
20
100
AcDbEntity
  8
0
  6
CONTINUOUS
100
AcDbMText
 10
23.2055549621582
 20
45.0336532592773
 40
1.0
 41
0.0
 11
1.0
 21
0.0
 71
     7
 72
     5
  7
STANDARD
  1
{\T0.916667;\W0.75;3}
  0
MTEXT
  5
70
330
20
100
AcDbEntity
  8
0
  6
CONTINUOUS
100
AcDbMText
 10
14.3218650817871
 20
52.045352935791
 40
1.5
 41
0.0
 11
-1.83697019872103E-016
 21
-1.0
 71
     7
 72
     5
  7
STANDARD
  1
{\T0.916667;\W0.75;ON}
  0
LINE
  5
71
330
20
100
AcDbEntity
  8
0
  6
CONTINUOUS
100
AcDbLine
 10
15.1144701247053
 20
45.9268983088104
 11
15.1144701247053
 21
49.9199849350694
  0
LINE
  5
72
330
20
100
AcDbEntity
  8
0
  6
CONTINUOUS
100
AcDbLine
 10
15.1144701247053
 20
49.9199849350694
 11
15.6153357925943
 21
48.9199849350694
  0
LINE
  5
73
330
20
100
AcDbEntity
  8
0
  6
CONTINUOUS
100
AcDbLine
 10
14.6136044568163
 20
48.9199849350694
 11
15.1144701247053
 21
49.9199849350694
  0
MTEXT
  5
74
330
20
100
AcDbEntity
  8
0
  6
CONTINUOUS
100
AcDbMText
 10
19.8305549621582
 20
44.1336441040039
 40
1.0
 41
0.0
 11
1.0
 21
0.0
 71
     7
 72
     5
  7
STANDARD
  1
{\T0.916667;\W0.75;SW1}
  0
CIRCLE
  5
75
330
20
100
AcDbEntity
  8
0
  6
CONTINUOUS
100
AcDbCircle
 10
22.2055537604254
 20
45.4336486293174
 40
0.4
  0
MTEXT
  5
76
330
20
100
AcDbEntity
  8
0
  6
CONTINUOUS
100
AcDbMText
 10
23.2055549621582
 20
50.1336441040039
 40
1.0
 41
0.0
 11
1.0
 21
0.0
 71
     7
 72
     5
  7
STANDARD
  1
{\T0.916667;\W0.75;1}
  0
LINE
  5
77
330
20
100
AcDbEntity
  8
0
  6
CONTINUOUS
100
AcDbLine
 10
15.1144701247053
 20
45.9268983088104
 11
15.6153357925943
 21
46.9268983088104
  0
CIRCLE
  5
78
330
20
100
AcDbEntity
  8
0
  6
CONTINUOUS
100
AcDbCircle
 10
18.7055537604254
 20
47.9336486293174
 40
0.4
  0
LINE
  5
79
330
20
100
AcDbEntity
  8
0
  6
CONTINUOUS
100
AcDbLine
 10
14.6136044568163
 20
46.9268983088104
 11
15.1144701247053
 21
45.9268983088104
  0
LINE
  5
7A
330
20
100
AcDbEntity
  8
0
  6
CONTINUOUS
100
AcDbLine
 10
18.7055537604254
 20
43.6336486293174
 11
22.2055537604254
 21
43.6336486293174
  0
MTEXT
  5
7B
330
20
100
AcDbEntity
  8
0
  6
CONTINUOUS
100
AcDbMText
 10
14.5048446655273
 20
45.8704528808594
 40
1.5
 41
0.0
 11
-1.83697019872103E-016
 21
-1.0
 71
     7
 72
     5
  7
STANDARD
  1
{\T0.916667;\W0.75;OFF}
  0
CIRCLE
  5
7C
330
20
100
AcDbEntity
  8
0
  6
CONTINUOUS
100
AcDbCircle
 10
58.6855537604254
 20
58.2336486293174
 40
1.75
  0
LINE
  5
7D
330
20
100
AcDbEntity
  8
0
  6
CENTER
100
AcDbLine
 10
58.6855537604254
 20
55.4836486293174
 11
58.6855537604254
 21
60.9836486293174
  0
LINE
  5
7E
330
20
100
AcDbEntity
  8
0
  6
CENTER
100
AcDbLine
 10
55.9355537604254
 20
58.2336486293174
 11
61.4355537604254
 21
58.2336486293174
  0
MTEXT
  5
7F
330
20
100
AcDbEntity
  8
0
  6
CONTINUOUS
100
AcDbMText
 10
14.6855545043945
 20
17.5931434631348
 40
2.0
 41
0.0
 11
-1.83697019872103E-016
 21
-1.0
 71
     7
 72
     5
  7
STANDARD
  1
{\T0.916667;\W0.75;A}
  0
MTEXT
  5
80
330
20
100
AcDbEntity
  8
0
  6
CONTINUOUS
100
AcDbMText
 10
14.6855545043945
 20
12.7723407745361
 40
2.0
 41
0.0
 11
-1.83697019872103E-016
 21
-1.0
 71
     7
 72
     5
  7
STANDARD
  1
{\T0.916667;\W0.75;B}
  0
MTEXT
  5
81
330
20
100
AcDbEntity
  8
0
  6
CONTINUOUS
100
AcDbMText
 10
14.6855545043945
 20
7.82814407348633
 40
2.0
 41
0.0
 11
-1.83697019872103E-016
 21
-1.0
 71
     7
 72
     5
  7
STANDARD
  1
{\T0.916667;\W0.75;C}
  0
MTEXT
  5
82
330
20
100
AcDbEntity
  8
0
  6
CONTINUOUS
100
AcDbMText
 10
14.6855545043945
 20
2.92514276504517
 40
2.0
 41
0.0
 11
-1.83697019872103E-016
 21
-1.0
 71
     7
 72
     5
  7
STANDARD
  1
{\T0.916667;\W0.75;D}
  0
MTEXT
  5
83
330
20
100
AcDbEntity
  8
0
  6
CONTINUOUS
100
AcDbMText
 10
14.6855545043945
 20
-2.81345653533936
 40
2.0
 41
0.0
 11
-1.83697019872103E-016
 21
-1.0
 71
     7
 72
     5
  7
STANDARD
  1
{\T0.916667;\W0.75;E}
  0
MTEXT
  5
84
330
20
100
AcDbEntity
  8
0
  6
CONTINUOUS
100
AcDbMText
 10
14.6855545043945
 20
-7.26424598693848
 40
2.0
 41
0.0
 11
-1.83697019872103E-016
 21
-1.0
 71
     7
 72
     5
  7
STANDARD
  1
{\T0.916667;\W0.75;V+}
  0
MTEXT
  5
85
330
20
100
AcDbEntity
  8
0
  6
CONTINUOUS
100
AcDbMText
 10
14.6855545043945
 20
-12.2084560394287
 40
2.0
 41
0.0
 11
-1.83697019872103E-016
 21
-1.0
 71
     7
 72
     5
  7
STANDARD
  1
{\T0.916667;\W0.75;V-}
  0
MTEXT
  5
86
330
20
100
AcDbEntity
  8
0
  6
CONTINUOUS
100
AcDbMText
 10
14.6855545043945
 20
-26.0593566894531
 40
2.0
 41
0.0
 11
-1.83697019872103E-016
 21
-1.0
 71
     7
 72
     5
  7
STANDARD
  1
{\T0.916667;\W0.75;F.G.}
  0
MTEXT
  5
87
330
20
100
AcDbEntity
  8
0
  6
CONTINUOUS
100
AcDbMText
 10
15.635555267334
 20
-17.7310562133789
 40
2.0
 41
0.0
 11
-1.83697019872103E-016
 21
-1.0
 71
     7
 72
     5
  7
STANDARD
  1
{\T0.916667;\W0.75;+}
  0
MTEXT
  5
88
330
20
100
AcDbEntity
  8
0
  6
CONTINUOUS
100
AcDbMText
 10
14.185564994812
 20
-18.1482467651367
 40
1.5
 41
0.0
 11
-1.83697019872103E-016
 21
-1.0
 71
     7
 72
     5
  7
STANDARD
  1
{\T0.916667;\W0.75;DC24V}
  0
LINE
  5
89
330
20
100
AcDbEntity
  8
0
  6
CONTINUOUS
100
AcDbLine
 10
20.0746855565148
 20
19.6338759864861
 11
20.0746855565148
 21
-30.3661240135139
  0
LINE
  5
8A
330
20
100
AcDbEntity
  8
0
  6
CONTINUOUS
100
AcDbLine
 10
18.709603448765
 20
19.6338759864861
 11
18.709603448765
 21
-30.3661240135139
  0
LINE
  5
8B
330
20
100
AcDbEntity
  8
0
  6
CONTINUOUS
100
AcDbLine
 10
21.5028335632568
 20
-30.3661240135139
 11
21.5028335632568
 21
-31.8661240135139
  0
LINE
  5
8C
330
20
100
AcDbEntity
  8
0
  6
CONTINUOUS
100
AcDbLine
 10
21.5028335632569
 20
19.6338759864861
 11
21.5028335632569
 21
21.1338759864861
  0
LINE
  5
8D
330
20
100
AcDbEntity
  8
0
  6
CONTINUOUS
100
AcDbLine
 10
18.7169075666279
 20
19.6338759864861
 11
18.7169075666279
 21
-30.3661240135139
  0
LINE
  5
8E
330
20
100
AcDbEntity
  8
0
  6
CONTINUOUS
100
AcDbLine
 10
27.116907566628
 20
21.1338759864861
 11
27.1169075666279
 21
-31.8661240135139
  0
LINE
  5
8F
330
20
100
AcDbEntity
  8
0
  6
CONTINUOUS
100
AcDbLine
 10
27.616907566628
 20
21.1338759864861
 11
27.6169075666279
 21
-31.8661240135139
  0
LINE
  5
90
330
20
100
AcDbEntity
  8
0
  6
CONTINUOUS
100
AcDbLine
 10
33.8169075666279
 20
17.0338759864861
 11
33.8169075666279
 21
16.8338759864861
  0
LINE
  5
91
330
20
100
AcDbEntity
  8
0
  6
CONTINUOUS
100
AcDbLine
 10
33.8169075666279
 20
16.8338759864861
 11
33.0169075666279
 21
16.6338759864861
  0
LINE
  5
92
330
20
100
AcDbEntity
  8
0
  6
CONTINUOUS
100
AcDbLine
 10
33.8169075666279
 20
-27.9661240135139
 11
33.8169075666279
 21
-28.1661240135139
  0
LINE
  5
93
330
20
100
AcDbEntity
  8
0
  6
CONTINUOUS
100
AcDbLine
 10
33.8169075666279
 20
-28.1661240135139
 11
33.0169075666279
 21
-28.3661240135139
  0
LINE
  5
94
330
20
100
AcDbEntity
  8
0
  6
CONTINUOUS
100
AcDbLine
 10
33.8169075666279
 20
-22.9661240135139
 11
33.8169075666279
 21
-23.1661240135139
  0
LINE
  5
95
330
20
100
AcDbEntity
  8
0
  6
CONTINUOUS
100
AcDbLine
 10
33.8169075666279
 20
-23.1661240135139
 11
33.0169075666279
 21
-23.3661240135139
  0
LINE
  5
96
330
20
100
AcDbEntity
  8
0
  6
CONTINUOUS
100
AcDbLine
 10
33.8169075666279
 20
-17.9661240135139
 11
33.8169075666279
 21
-18.1661240135139
  0
LINE
  5
97
330
20
100
AcDbEntity
  8
0
  6
CONTINUOUS
100
AcDbLine
 10
33.8169075666279
 20
-18.1661240135139
 11
33.0169075666279
 21
-18.3661240135139
  0
LINE
  5
98
330
20
100
AcDbEntity
  8
0
  6
CONTINUOUS
100
AcDbLine
 10
33.8169075666279
 20
-12.9661240135139
 11
33.8169075666279
 21
-13.1661240135139
  0
LINE
  5
99
330
20
100
AcDbEntity
  8
0
  6
CONTINUOUS
100
AcDbLine
 10
33.8169075666279
 20
-13.1661240135139
 11
33.0169075666279
 21
-13.3661240135139
  0
LINE
  5
9A
330
20
100
AcDbEntity
  8
0
  6
CONTINUOUS
100
AcDbLine
 10
33.8169075666279
 20
-7.96612401351392
 11
33.8169075666279
 21
-8.16612401351392
  0
LINE
  5
9B
330
20
100
AcDbEntity
  8
0
  6
CONTINUOUS
100
AcDbLine
 10
33.8169075666279
 20
-8.16612401351392
 11
33.0169075666279
 21
-8.36612401351392
  0
LINE
  5
9C
330
20
100
AcDbEntity
  8
0
  6
CONTINUOUS
100
AcDbLine
 10
33.8169075666279
 20
-2.96612401351392
 11
33.8169075666279
 21
-3.16612401351392
  0
LINE
  5
9D
330
20
100
AcDbEntity
  8
0
  6
CONTINUOUS
100
AcDbLine
 10
33.8169075666279
 20
-3.16612401351392
 11
33.0169075666279
 21
-3.36612401351392
  0
LINE
  5
9E
330
20
100
AcDbEntity
  8
0
  6
CONTINUOUS
100
AcDbLine
 10
33.8169075666279
 20
2.03387598648611
 11
33.8169075666279
 21
1.83387598648611
  0
LINE
  5
9F
330
20
100
AcDbEntity
  8
0
  6
CONTINUOUS
100
AcDbLine
 10
33.8169075666279
 20
1.83387598648611
 11
33.0169075666279
 21
1.63387598648611
  0
LINE
  5
A0
330
20
100
AcDbEntity
  8
0
  6
CONTINUOUS
100
AcDbLine
 10
33.8169075666279
 20
7.03387598648611
 11
33.8169075666279
 21
6.83387598648611
  0
LINE
  5
A1
330
20
100
AcDbEntity
  8
0
  6
CONTINUOUS
100
AcDbLine
 10
33.8169075666279
 20
6.83387598648611
 11
33.0169075666279
 21
6.63387598648611
  0
LINE
  5
A2
330
20
100
AcDbEntity
  8
0
  6
CONTINUOUS
100
AcDbLine
 10
33.8169075666279
 20
12.0338759864861
 11
33.8169075666279
 21
11.8338759864861
  0
LINE
  5
A3
330
20
100
AcDbEntity
  8
0
  6
CONTINUOUS
100
AcDbLine
 10
33.8169075666279
 20
11.8338759864861
 11
33.0169075666279
 21
11.6338759864861
  0
LINE
  5
A4
330
20
100
AcDbEntity
  8
0
  6
CONTINUOUS
100
AcDbLine
 10
36.5169075666279
 20
17.0338759864861
 11
33.0169075666279
 21
17.0338759864861
  0
LINE
  5
A5
330
20
100
AcDbEntity
  8
0
  6
CONTINUOUS
100
AcDbLine
 10
36.5169075666279
 20
18.2338759864861
 11
33.0169075666279
 21
18.2338759864861
  0
LINE
  5
A6
330
20
100
AcDbEntity
  8
0
  6
CONTINUOUS
100
AcDbLine
 10
36.5169075666279
 20
17.0338759864861
 11
36.5169075666279
 21
18.2338759864861
  0
LINE
  5
A7
330
20
100
AcDbEntity
  8
0
  6
CONTINUOUS
100
AcDbLine
 10
36.5169075666279
 20
-27.9661240135139
 11
33.0169075666279
 21
-27.9661240135139
  0
LINE
  5
A8
330
20
100
AcDbEntity
  8
0
  6
CONTINUOUS
100
AcDbLine
 10
36.5169075666279
 20
-26.7661240135139
 11
33.0169075666279
 21
-26.7661240135139
  0
LINE
  5
A9
330
20
100
AcDbEntity
  8
0
  6
CONTINUOUS
100
AcDbLine
 10
36.5169075666279
 20
-27.9661240135139
 11
36.5169075666279
 21
-26.7661240135139
  0
LINE
  5
AA
330
20
100
AcDbEntity
  8
0
  6
CONTINUOUS
100
AcDbLine
 10
36.5169075666279
 20
-22.9661240135139
 11
33.0169075666279
 21
-22.9661240135139
  0
LINE
  5
AB
330
20
100
AcDbEntity
  8
0
  6
CONTINUOUS
100
AcDbLine
 10
36.5169075666279
 20
-21.7661240135139
 11
33.0169075666279
 21
-21.7661240135139
  0
LINE
  5
AC
330
20
100
AcDbEntity
  8
0
  6
CONTINUOUS
100
AcDbLine
 10
36.5169075666279
 20
-22.9661240135139
 11
36.5169075666279
 21
-21.7661240135139
  0
LINE
  5
AD
330
20
100
AcDbEntity
  8
0
  6
CONTINUOUS
100
AcDbLine
 10
36.5169075666279
 20
-17.9661240135139
 11
33.0169075666279
 21
-17.9661240135139
  0
LINE
  5
AE
330
20
100
AcDbEntity
  8
0
  6
CONTINUOUS
100
AcDbLine
 10
36.5169075666279
 20
-16.7661240135139
 11
33.0169075666279
 21
-16.7661240135139
  0
LINE
  5
AF
330
20
100
AcDbEntity
  8
0
  6
CONTINUOUS
100
AcDbLine
 10
36.5169075666279
 20
-17.9661240135139
 11
36.5169075666279
 21
-16.7661240135139
  0
LINE
  5
B0
330
20
100
AcDbEntity
  8
0
  6
CONTINUOUS
100
AcDbLine
 10
36.5169075666279
 20
-12.9661240135139
 11
33.0169075666279
 21
-12.9661240135139
  0
LINE
  5
B1
330
20
100
AcDbEntity
  8
0
  6
CONTINUOUS
100
AcDbLine
 10
36.5169075666279
 20
-11.7661240135139
 11
33.0169075666279
 21
-11.7661240135139
  0
LINE
  5
B2
330
20
100
AcDbEntity
  8
0
  6
CONTINUOUS
100
AcDbLine
 10
36.5169075666279
 20
-12.9661240135139
 11
36.5169075666279
 21
-11.7661240135139
  0
LINE
  5
B3
330
20
100
AcDbEntity
  8
0
  6
CONTINUOUS
100
AcDbLine
 10
36.5169075666279
 20
-7.96612401351392
 11
33.0169075666279
 21
-7.96612401351392
  0
LINE
  5
B4
330
20
100
AcDbEntity
  8
0
  6
CONTINUOUS
100
AcDbLine
 10
36.5169075666279
 20
-6.76612401351392
 11
33.0169075666279
 21
-6.76612401351392
  0
LINE
  5
B5
330
20
100
AcDbEntity
  8
0
  6
CONTINUOUS
100
AcDbLine
 10
36.5169075666279
 20
-7.96612401351392
 11
36.5169075666279
 21
-6.76612401351392
  0
LINE
  5
B6
330
20
100
AcDbEntity
  8
0
  6
CONTINUOUS
100
AcDbLine
 10
36.5169075666279
 20
-2.96612401351392
 11
33.0169075666279
 21
-2.96612401351392
  0
LINE
  5
B7
330
20
100
AcDbEntity
  8
0
  6
CONTINUOUS
100
AcDbLine
 10
36.5169075666279
 20
-1.76612401351388
 11
33.0169075666279
 21
-1.76612401351388
  0
LINE
  5
B8
330
20
100
AcDbEntity
  8
0
  6
CONTINUOUS
100
AcDbLine
 10
36.5169075666279
 20
-2.96612401351392
 11
36.5169075666279
 21
-1.76612401351388
  0
LINE
  5
B9
330
20
100
AcDbEntity
  8
0
  6
CONTINUOUS
100
AcDbLine
 10
36.5169075666279
 20
2.03387598648611
 11
33.0169075666279
 21
2.03387598648611
  0
LINE
  5
BA
330
20
100
AcDbEntity
  8
0
  6
CONTINUOUS
100
AcDbLine
 10
36.5169075666279
 20
3.23387598648611
 11
33.0169075666279
 21
3.23387598648611
  0
LINE
  5
BB
330
20
100
AcDbEntity
  8
0
  6
CONTINUOUS
100
AcDbLine
 10
36.5169075666279
 20
2.03387598648611
 11
36.5169075666279
 21
3.23387598648611
  0
LINE
  5
BC
330
20
100
AcDbEntity
  8
0
  6
CONTINUOUS
100
AcDbLine
 10
36.5169075666279
 20
7.03387598648611
 11
33.0169075666279
 21
7.03387598648611
  0
LINE
  5
BD
330
20
100
AcDbEntity
  8
0
  6
CONTINUOUS
100
AcDbLine
 10
36.5169075666279
 20
8.23387598648611
 11
33.0169075666279
 21
8.23387598648611
  0
LINE
  5
BE
330
20
100
AcDbEntity
  8
0
  6
CONTINUOUS
100
AcDbLine
 10
36.5169075666279
 20
7.03387598648611
 11
36.5169075666279
 21
8.23387598648611
  0
LINE
  5
BF
330
20
100
AcDbEntity
  8
0
  6
CONTINUOUS
100
AcDbLine
 10
33.0169075666279
 20
-31.8661240135139
 11
33.0169075666279
 21
21.1338759864861
  0
LINE
  5
C0
330
20
100
AcDbEntity
  8
0
  6
CONTINUOUS
100
AcDbLine
 10
36.5169075666279
 20
12.0338759864861
 11
33.0169075666279
 21
12.0338759864861
  0
LINE
  5
C1
330
20
100
AcDbEntity
  8
0
  6
CONTINUOUS
100
AcDbLine
 10
36.5169075666279
 20
13.2338759864861
 11
33.0169075666279
 21
13.2338759864861
  0
LINE
  5
C2
330
20
100
AcDbEntity
  8
0
  6
CONTINUOUS
100
AcDbLine
 10
36.5169075666279
 20
12.0338759864861
 11
36.5169075666279
 21
13.2338759864861
  0
LINE
  5
C3
330
20
100
AcDbEntity
  8
0
  6
CONTINUOUS
100
AcDbLine
 10
22.916907566628
 20
18.7338759864861
 11
22.916907566628
 21
16.1338759864861
  0
LINE
  5
C4
330
20
100
AcDbEntity
  8
0
  6
CONTINUOUS
100
AcDbLine
 10
26.516907566628
 20
16.1338759864861
 11
26.516907566628
 21
18.7338759864861
  0
LINE
  5
C5
330
20
100
AcDbEntity
  8
0
  6
CONTINUOUS
100
AcDbLine
 10
22.916907566628
 20
16.1338759864861
 11
26.516907566628
 21
16.1338759864861
  0
LINE
  5
C6
330
20
100
AcDbEntity
  8
0
  6
CONTINUOUS
100
AcDbLine
 10
26.516907566628
 20
18.7338759864861
 11
22.916907566628
 21
18.7338759864861
  0
LINE
  5
C7
330
20
100
AcDbEntity
  8
0
  6
CONTINUOUS
100
AcDbLine
 10
22.916907566628
 20
18.1338759864861
 11
26.516907566628
 21
18.1338759864861
  0
LINE
  5
C8
330
20
100
AcDbEntity
  8
0
  6
CONTINUOUS
100
AcDbLine
 10
22.916907566628
 20
16.7338759864861
 11
26.516907566628
 21
16.7338759864861
  0
LINE
  5
C9
330
20
100
AcDbEntity
  8
0
  6
CONTINUOUS
100
AcDbLine
 10
22.9169075666279
 20
-26.2661240135139
 11
22.9169075666279
 21
-28.8661240135139
  0
LINE
  5
CA
330
20
100
AcDbEntity
  8
0
  6
CONTINUOUS
100
AcDbLine
 10
26.516907566628
 20
-28.8661240135139
 11
26.516907566628
 21
-26.2661240135139
  0
LINE
  5
CB
330
20
100
AcDbEntity
  8
0
  6
CONTINUOUS
100
AcDbLine
 10
22.9169075666279
 20
-28.8661240135139
 11
26.516907566628
 21
-28.8661240135139
  0
LINE
  5
CC
330
20
100
AcDbEntity
  8
0
  6
CONTINUOUS
100
AcDbLine
 10
26.516907566628
 20
-26.2661240135139
 11
22.9169075666279
 21
-26.2661240135139
  0
LINE
  5
CD
330
20
100
AcDbEntity
  8
0
  6
CONTINUOUS
100
AcDbLine
 10
22.9169075666279
 20
-26.8661240135139
 11
26.516907566628
 21
-26.8661240135139
  0
LINE
  5
CE
330
20
100
AcDbEntity
  8
0
  6
CONTINUOUS
100
AcDbLine
 10
22.9169075666279
 20
-28.2661240135139
 11
26.516907566628
 21
-28.2661240135139
  0
LINE
  5
CF
330
20
100
AcDbEntity
  8
0
  6
CONTINUOUS
100
AcDbLine
 10
22.9169075666279
 20
-21.2661240135139
 11
22.9169075666279
 21
-23.8661240135139
  0
LINE
  5
D0
330
20
100
AcDbEntity
  8
0
  6
CONTINUOUS
100
AcDbLine
 10
26.516907566628
 20
-23.8661240135139
 11
26.516907566628
 21
-21.2661240135139
  0
LINE
  5
D1
330
20
100
AcDbEntity
  8
0
  6
CONTINUOUS
100
AcDbLine
 10
22.9169075666279
 20
-23.8661240135139
 11
26.516907566628
 21
-23.8661240135139
  0
LINE
  5
D2
330
20
100
AcDbEntity
  8
0
  6
CONTINUOUS
100
AcDbLine
 10
26.516907566628
 20
-21.2661240135139
 11
22.9169075666279
 21
-21.2661240135139
  0
LINE
  5
D3
330
20
100
AcDbEntity
  8
0
  6
CONTINUOUS
100
AcDbLine
 10
22.9169075666279
 20
-21.8661240135139
 11
26.516907566628
 21
-21.8661240135139
  0
LINE
  5
D4
330
20
100
AcDbEntity
  8
0
  6
CONTINUOUS
100
AcDbLine
 10
22.9169075666279
 20
-23.2661240135139
 11
26.516907566628
 21
-23.2661240135139
  0
LINE
  5
D5
330
20
100
AcDbEntity
  8
0
  6
CONTINUOUS
100
AcDbLine
 10
22.9169075666279
 20
-16.2661240135139
 11
22.9169075666279
 21
-18.8661240135139
  0
LINE
  5
D6
330
20
100
AcDbEntity
  8
0
  6
CONTINUOUS
100
AcDbLine
 10
26.516907566628
 20
-18.8661240135139
 11
26.516907566628
 21
-16.2661240135139
  0
LINE
  5
D7
330
20
100
AcDbEntity
  8
0
  6
CONTINUOUS
100
AcDbLine
 10
22.9169075666279
 20
-18.8661240135139
 11
26.516907566628
 21
-18.8661240135139
  0
LINE
  5
D8
330
20
100
AcDbEntity
  8
0
  6
CONTINUOUS
100
AcDbLine
 10
26.516907566628
 20
-16.2661240135139
 11
22.9169075666279
 21
-16.2661240135139
  0
LINE
  5
D9
330
20
100
AcDbEntity
  8
0
  6
CONTINUOUS
100
AcDbLine
 10
22.9169075666279
 20
-16.8661240135139
 11
26.516907566628
 21
-16.8661240135139
  0
LINE
  5
DA
330
20
100
AcDbEntity
  8
0
  6
CONTINUOUS
100
AcDbLine
 10
22.9169075666279
 20
-18.2661240135139
 11
26.516907566628
 21
-18.2661240135139
  0
LINE
  5
DB
330
20
100
AcDbEntity
  8
0
  6
CONTINUOUS
100
AcDbLine
 10
22.916907566628
 20
-11.2661240135139
 11
22.9169075666279
 21
-13.8661240135139
  0
LINE
  5
DC
330
20
100
AcDbEntity
  8
0
  6
CONTINUOUS
100
AcDbLine
 10
26.516907566628
 20
-13.8661240135139
 11
26.516907566628
 21
-11.2661240135139
  0
LINE
  5
DD
330
20
100
AcDbEntity
  8
0
  6
CONTINUOUS
100
AcDbLine
 10
22.9169075666279
 20
-13.8661240135139
 11
26.516907566628
 21
-13.8661240135139
  0
LINE
  5
DE
330
20
100
AcDbEntity
  8
0
  6
CONTINUOUS
100
AcDbLine
 10
26.516907566628
 20
-11.2661240135139
 11
22.916907566628
 21
-11.2661240135139
  0
LINE
  5
DF
330
20
100
AcDbEntity
  8
0
  6
CONTINUOUS
100
AcDbLine
 10
22.9169075666279
 20
-11.8661240135139
 11
26.516907566628
 21
-11.8661240135139
  0
LINE
  5
E0
330
20
100
AcDbEntity
  8
0
  6
CONTINUOUS
100
AcDbLine
 10
22.9169075666279
 20
-13.2661240135139
 11
26.516907566628
 21
-13.2661240135139
  0
LINE
  5
E1
330
20
100
AcDbEntity
  8
0
  6
CONTINUOUS
100
AcDbLine
 10
22.916907566628
 20
-6.26612401351392
 11
22.916907566628
 21
-8.86612401351392
  0
LINE
  5
E2
330
20
100
AcDbEntity
  8
0
  6
CONTINUOUS
100
AcDbLine
 10
26.516907566628
 20
-8.86612401351392
 11
26.516907566628
 21
-6.26612401351392
  0
LINE
  5
E3
330
20
100
AcDbEntity
  8
0
  6
CONTINUOUS
100
AcDbLine
 10
22.916907566628
 20
-8.86612401351392
 11
26.516907566628
 21
-8.86612401351392
  0
LINE
  5
E4
330
20
100
AcDbEntity
  8
0
  6
CONTINUOUS
100
AcDbLine
 10
26.516907566628
 20
-6.26612401351392
 11
22.916907566628
 21
-6.26612401351392
  0
LINE
  5
E5
330
20
100
AcDbEntity
  8
0
  6
CONTINUOUS
100
AcDbLine
 10
22.916907566628
 20
-6.86612401351392
 11
26.516907566628
 21
-6.86612401351392
  0
LINE
  5
E6
330
20
100
AcDbEntity
  8
0
  6
CONTINUOUS
100
AcDbLine
 10
22.916907566628
 20
-8.26612401351392
 11
26.516907566628
 21
-8.26612401351392
  0
LINE
  5
E7
330
20
100
AcDbEntity
  8
0
  6
CONTINUOUS
100
AcDbLine
 10
22.916907566628
 20
-1.26612401351388
 11
22.916907566628
 21
-3.86612401351392
  0
LINE
  5
E8
330
20
100
AcDbEntity
  8
0
  6
CONTINUOUS
100
AcDbLine
 10
26.516907566628
 20
-3.86612401351392
 11
26.516907566628
 21
-1.26612401351388
  0
LINE
  5
E9
330
20
100
AcDbEntity
  8
0
  6
CONTINUOUS
100
AcDbLine
 10
22.916907566628
 20
-3.86612401351392
 11
26.516907566628
 21
-3.86612401351392
  0
LINE
  5
EA
330
20
100
AcDbEntity
  8
0
  6
CONTINUOUS
100
AcDbLine
 10
26.516907566628
 20
-1.26612401351388
 11
22.916907566628
 21
-1.26612401351388
  0
LINE
  5
EB
330
20
100
AcDbEntity
  8
0
  6
CONTINUOUS
100
AcDbLine
 10
22.916907566628
 20
-1.86612401351389
 11
26.516907566628
 21
-1.86612401351389
  0
LINE
  5
EC
330
20
100
AcDbEntity
  8
0
  6
CONTINUOUS
100
AcDbLine
 10
22.916907566628
 20
-3.26612401351392
 11
26.516907566628
 21
-3.26612401351392
  0
LINE
  5
ED
330
20
100
AcDbEntity
  8
0
  6
CONTINUOUS
100
AcDbLine
 10
22.916907566628
 20
3.73387598648611
 11
22.916907566628
 21
1.13387598648611
  0
LINE
  5
EE
330
20
100
AcDbEntity
  8
0
  6
CONTINUOUS
100
AcDbLine
 10
26.516907566628
 20
1.13387598648611
 11
26.516907566628
 21
3.73387598648611
  0
LINE
  5
EF
330
20
100
AcDbEntity
  8
0
  6
CONTINUOUS
100
AcDbLine
 10
22.916907566628
 20
1.13387598648611
 11
26.516907566628
 21
1.13387598648611
  0
LINE
  5
F0
330
20
100
AcDbEntity
  8
0
  6
CONTINUOUS
100
AcDbLine
 10
26.516907566628
 20
3.73387598648611
 11
22.916907566628
 21
3.73387598648611
  0
LINE
  5
F1
330
20
100
AcDbEntity
  8
0
  6
CONTINUOUS
100
AcDbLine
 10
22.916907566628
 20
3.13387598648611
 11
26.516907566628
 21
3.13387598648611
  0
LINE
  5
F2
330
20
100
AcDbEntity
  8
0
  6
CONTINUOUS
100
AcDbLine
 10
22.916907566628
 20
1.73387598648611
 11
26.516907566628
 21
1.73387598648611
  0
LINE
  5
F3
330
20
100
AcDbEntity
  8
0
  6
CONTINUOUS
100
AcDbLine
 10
22.916907566628
 20
8.73387598648611
 11
22.916907566628
 21
6.1338759864861
  0
LINE
  5
F4
330
20
100
AcDbEntity
  8
0
  6
CONTINUOUS
100
AcDbLine
 10
26.516907566628
 20
6.1338759864861
 11
26.516907566628
 21
8.73387598648611
  0
LINE
  5
F5
330
20
100
AcDbEntity
  8
0
  6
CONTINUOUS
100
AcDbLine
 10
22.916907566628
 20
6.1338759864861
 11
26.516907566628
 21
6.1338759864861
  0
LINE
  5
F6
330
20
100
AcDbEntity
  8
0
  6
CONTINUOUS
100
AcDbLine
 10
26.516907566628
 20
8.73387598648611
 11
22.916907566628
 21
8.73387598648611
  0
LINE
  5
F7
330
20
100
AcDbEntity
  8
0
  6
CONTINUOUS
100
AcDbLine
 10
22.916907566628
 20
8.13387598648611
 11
26.516907566628
 21
8.13387598648611
  0
LINE
  5
F8
330
20
100
AcDbEntity
  8
0
  6
CONTINUOUS
100
AcDbLine
 10
22.916907566628
 20
6.73387598648612
 11
26.516907566628
 21
6.73387598648612
  0
LINE
  5
F9
330
20
100
AcDbEntity
  8
0
  6
CONTINUOUS
100
AcDbLine
 10
22.916907566628
 20
13.7338759864861
 11
22.916907566628
 21
11.1338759864861
  0
LINE
  5
FA
330
20
100
AcDbEntity
  8
0
  6
CONTINUOUS
100
AcDbLine
 10
26.516907566628
 20
11.1338759864861
 11
26.516907566628
 21
13.7338759864861
  0
LINE
  5
FB
330
20
100
AcDbEntity
  8
0
  6
CONTINUOUS
100
AcDbLine
 10
22.916907566628
 20
11.1338759864861
 11
26.516907566628
 21
11.1338759864861
  0
LINE
  5
FC
330
20
100
AcDbEntity
  8
0
  6
CONTINUOUS
100
AcDbLine
 10
26.516907566628
 20
13.7338759864861
 11
22.916907566628
 21
13.7338759864861
  0
LINE
  5
FD
330
20
100
AcDbEntity
  8
0
  6
CONTINUOUS
100
AcDbLine
 10
22.916907566628
 20
13.1338759864861
 11
26.516907566628
 21
13.1338759864861
  0
LINE
  5
FE
330
20
100
AcDbEntity
  8
0
  6
CONTINUOUS
100
AcDbLine
 10
22.916907566628
 20
11.7338759864861
 11
26.516907566628
 21
11.7338759864861
  0
LINE
  5
FF
330
20
100
AcDbEntity
  8
0
  6
CONTINUOUS
100
AcDbLine
 10
17.516907566628
 20
19.1338759864861
 11
17.7169075666279
 21
19.1338759864861
  0
LINE
  5
100
330
20
100
AcDbEntity
  8
0
  6
CONTINUOUS
100
AcDbLine
 10
17.7169075666279
 20
-29.4661240135139
 11
17.516907566628
 21
-29.4661240135139
  0
LINE
  5
101
330
20
100
AcDbEntity
  8
0
  6
CONTINUOUS
100
AcDbLine
 10
17.516907566628
 20
-20.8661240135139
 11
17.7169075666279
 21
-20.8661240135139
  0
LINE
  5
102
330
20
100
AcDbEntity
  8
0
  6
CONTINUOUS
100
AcDbLine
 10
17.7169075666279
 20
-19.4661240135139
 11
17.516907566628
 21
-19.4661240135139
  0
LINE
  5
103
330
20
100
AcDbEntity
  8
0
  6
CONTINUOUS
100
AcDbLine
 10
17.516907566628
 20
-25.8661240135139
 11
17.7169075666279
 21
-25.8661240135139
  0
LINE
  5
104
330
20
100
AcDbEntity
  8
0
  6
CONTINUOUS
100
AcDbLine
 10
17.7169075666279
 20
-24.4661240135139
 11
17.516907566628
 21
-24.4661240135139
  0
LINE
  5
105
330
20
100
AcDbEntity
  8
0
  6
CONTINUOUS
100
AcDbLine
 10
17.516907566628
 20
-10.8661240135139
 11
17.7169075666279
 21
-10.8661240135139
  0
LINE
  5
106
330
20
100
AcDbEntity
  8
0
  6
CONTINUOUS
100
AcDbLine
 10
17.7169075666279
 20
-9.46612401351392
 11
17.516907566628
 21
-9.46612401351392
  0
LINE
  5
107
330
20
100
AcDbEntity
  8
0
  6
CONTINUOUS
100
AcDbLine
 10
17.516907566628
 20
-15.8661240135139
 11
17.7169075666279
 21
-15.8661240135139
  0
LINE
  5
108
330
20
100
AcDbEntity
  8
0
  6
CONTINUOUS
100
AcDbLine
 10
17.7169075666279
 20
-14.4661240135139
 11
17.516907566628
 21
-14.4661240135139
  0
LINE
  5
109
330
20
100
AcDbEntity
  8
0
  6
CONTINUOUS
100
AcDbLine
 10
17.516907566628
 20
-0.866124013513886
 11
17.7169075666279
 21
-0.866124013513886
  0
LINE
  5
10A
330
20
100
AcDbEntity
  8
0
  6
CONTINUOUS
100
AcDbLine
 10
17.7169075666279
 20
0.533875986486113
 11
17.516907566628
 21
0.533875986486113
  0
LINE
  5
10B
330
20
100
AcDbEntity
  8
0
  6
CONTINUOUS
100
AcDbLine
 10
17.516907566628
 20
-5.86612401351392
 11
17.7169075666279
 21
-5.86612401351392
  0
LINE
  5
10C
330
20
100
AcDbEntity
  8
0
  6
CONTINUOUS
100
AcDbLine
 10
17.7169075666279
 20
-4.46612401351392
 11
17.516907566628
 21
-4.46612401351392
  0
LINE
  5
10D
330
20
100
AcDbEntity
  8
0
  6
CONTINUOUS
100
AcDbLine
 10
17.516907566628
 20
9.13387598648611
 11
17.7169075666279
 21
9.13387598648611
  0
LINE
  5
10E
330
20
100
AcDbEntity
  8
0
  6
CONTINUOUS
100
AcDbLine
 10
17.7169075666279
 20
10.5338759864861
 11
17.516907566628
 21
10.5338759864861
  0
LINE
  5
10F
330
20
100
AcDbEntity
  8
0
  6
CONTINUOUS
100
AcDbLine
 10
17.516907566628
 20
4.13387598648611
 11
17.7169075666279
 21
4.13387598648611
  0
LINE
  5
110
330
20
100
AcDbEntity
  8
0
  6
CONTINUOUS
100
AcDbLine
 10
17.7169075666279
 20
5.53387598648611
 11
17.516907566628
 21
5.53387598648611
  0
LINE
  5
111
330
20
100
AcDbEntity
  8
0
  6
CONTINUOUS
100
AcDbLine
 10
17.516907566628
 20
10.5338759864861
 11
17.516907566628
 21
9.13387598648611
  0
LINE
  5
112
330
20
100
AcDbEntity
  8
0
  6
CONTINUOUS
100
AcDbLine
 10
17.6799458576409
 20
5.53387598648611
 11
17.6799458576409
 21
9.13387598648611
  0
LINE
  5
113
330
20
100
AcDbEntity
  8
0
  6
CONTINUOUS
100
AcDbLine
 10
17.516907566628
 20
5.53387598648611
 11
17.516907566628
 21
4.13387598648611
  0
LINE
  5
114
330
20
100
AcDbEntity
  8
0
  6
CONTINUOUS
100
AcDbLine
 10
17.6799458576409
 20
0.533875986486113
 11
17.6799458576409
 21
4.13387598648611
  0
LINE
  5
115
330
20
100
AcDbEntity
  8
0
  6
CONTINUOUS
100
AcDbLine
 10
17.516907566628
 20
0.533875986486113
 11
17.516907566628
 21
-0.866124013513886
  0
LINE
  5
116
330
20
100
AcDbEntity
  8
0
  6
CONTINUOUS
100
AcDbLine
 10
17.6799458576409
 20
-4.46612401351392
 11
17.6799458576409
 21
-0.866124013513886
  0
LINE
  5
117
330
20
100
AcDbEntity
  8
0
  6
CONTINUOUS
100
AcDbLine
 10
17.516907566628
 20
-4.46612401351392
 11
17.516907566628
 21
-5.86612401351392
  0
LINE
  5
118
330
20
100
AcDbEntity
  8
0
  6
CONTINUOUS
100
AcDbLine
 10
17.6799458576409
 20
-9.46612401351392
 11
17.6799458576409
 21
-5.86612401351392
  0
LINE
  5
119
330
20
100
AcDbEntity
  8
0
  6
CONTINUOUS
100
AcDbLine
 10
17.516907566628
 20
-9.46612401351392
 11
17.516907566628
 21
-10.8661240135139
  0
LINE
  5
11A
330
20
100
AcDbEntity
  8
0
  6
CONTINUOUS
100
AcDbLine
 10
17.6799458576409
 20
-14.4661240135139
 11
17.6799458576409
 21
-10.8661240135139
  0
LINE
  5
11B
330
20
100
AcDbEntity
  8
0
  6
CONTINUOUS
100
AcDbLine
 10
17.516907566628
 20
-14.4661240135139
 11
17.516907566628
 21
-15.8661240135139
  0
LINE
  5
11C
330
20
100
AcDbEntity
  8
0
  6
CONTINUOUS
100
AcDbLine
 10
17.6799458576409
 20
-19.4661240135139
 11
17.6799458576409
 21
-15.8661240135139
  0
LINE
  5
11D
330
20
100
AcDbEntity
  8
0
  6
CONTINUOUS
100
AcDbLine
 10
17.516907566628
 20
-19.4661240135139
 11
17.516907566628
 21
-20.8661240135139
  0
LINE
  5
11E
330
20
100
AcDbEntity
  8
0
  6
CONTINUOUS
100
AcDbLine
 10
17.6799458576409
 20
-24.4661240135139
 11
17.6799458576409
 21
-20.8661240135139
  0
LINE
  5
11F
330
20
100
AcDbEntity
  8
0
  6
CONTINUOUS
100
AcDbLine
 10
17.516907566628
 20
-24.4661240135139
 11
17.516907566628
 21
-25.8661240135139
  0
LINE
  5
120
330
20
100
AcDbEntity
  8
0
  6
CONTINUOUS
100
AcDbLine
 10
17.6799458576409
 20
-29.4661240135139
 11
17.6799458576409
 21
-25.8661240135139
  0
LINE
  5
121
330
20
100
AcDbEntity
  8
0
  6
CONTINUOUS
100
AcDbLine
 10
17.516907566628
 20
-29.4661240135139
 11
17.516907566628
 21
-31.8661240135139
  0
LINE
  5
122
330
20
100
AcDbEntity
  8
0
  6
CONTINUOUS
100
AcDbLine
 10
17.516907566628
 20
21.1338759864861
 11
17.516907566628
 21
19.1338759864861
  0
LINE
  5
123
330
20
100
AcDbEntity
  8
0
  6
CONTINUOUS
100
AcDbLine
 10
17.6799458576409
 20
15.5338759864861
 11
17.679945857641
 21
19.1338759864861
  0
LINE
  5
124
330
20
100
AcDbEntity
  8
0
  6
CONTINUOUS
100
AcDbLine
 10
17.6799458576409
 20
10.5338759864861
 11
17.6799458576409
 21
14.1338759864861
  0
LINE
  5
125
330
20
100
AcDbEntity
  8
0
  6
CONTINUOUS
100
AcDbLine
 10
17.516907566628
 20
15.5338759864861
 11
17.516907566628
 21
14.1338759864861
  0
LINE
  5
126
330
20
100
AcDbEntity
  8
0
  6
CONTINUOUS
100
AcDbLine
 10
17.7169075666279
 20
15.5338759864861
 11
17.516907566628
 21
15.5338759864861
  0
LINE
  5
127
330
20
100
AcDbEntity
  8
0
  6
CONTINUOUS
100
AcDbLine
 10
17.516907566628
 20
14.1338759864861
 11
17.7169075666279
 21
14.1338759864861
  0
LINE
  5
128
330
20
100
AcDbEntity
  8
0
  6
CONTINUOUS
100
AcDbLine
 10
21.5028335632569
 20
19.6338759864861
 11
18.7169075666279
 21
19.6338759864861
  0
LINE
  5
129
330
20
100
AcDbEntity
  8
0
  6
CONTINUOUS
100
AcDbLine
 10
17.516907566628
 20
21.1338759864861
 11
33.0169075666279
 21
21.1338759864861
  0
LINE
  5
12A
330
20
100
AcDbEntity
  8
0
  6
CONTINUOUS
100
AcDbLine
 10
22.216907566628
 20
21.1338759864861
 11
22.2169075666279
 21
-31.8661240135139
  0
LINE
  5
12B
330
20
100
AcDbEntity
  8
0
  6
CONTINUOUS
100
AcDbLine
 10
19.1169075666279
 20
21.1338759864861
 11
19.1169075666279
 21
27.0338759864861
  0
LINE
  5
12C
330
20
100
AcDbEntity
  8
0
  6
CONTINUOUS
100
AcDbLine
 10
19.1169075666279
 20
27.0338759864861
 11
26.116907566628
 21
27.0338759864861
  0
LINE
  5
12D
330
20
100
AcDbEntity
  8
0
  6
CONTINUOUS
100
AcDbLine
 10
26.116907566628
 20
21.1338759864861
 11
26.116907566628
 21
27.0338759864861
  0
LINE
  5
12E
330
20
100
AcDbEntity
  8
0
  6
CONTINUOUS
100
AcDbLine
 10
23.866907566628
 20
27.0338759864861
 11
23.866907566628
 21
23.9838759864861
  0
LINE
  5
12F
330
20
100
AcDbEntity
  8
0
  6
CONTINUOUS
100
AcDbLine
 10
21.366907566628
 20
23.9838759864861
 11
21.366907566628
 21
27.0338759864861
  0
LWPOLYLINE
  5
130
330
20
100
AcDbEntity
  8
0
  6
CONTINUOUS
100
AcDbPolyline
 90
      131
 70
     0
 43
0.0
 10
21.366907566628
 20
23.9838759864861
 10
21.367039776719
 20
23.9656961144216
 10
21.3680972896507
 20
23.9293517522794
 10
21.3702114207523
 20
23.8930535230828
 10
21.3716641940133
 20
23.8749313080515
 10
21.373380381258
 20
23.8568321387576
 10
21.3776014899106
 20
23.820718246211
 10
21.3828711752313
 20
23.7847424014017
 10
21.3891849785397
 20
23.748935043486
 10
21.3965375577281
 20
23.7133264690635
 10
21.4049226917803
 20
23.6779468065432
 10
21.4095002837667
 20
23.6603521801079
 10
21.4143332860359
 20
23.6428259906518
 10
21.4247613781927
 20
23.6079937371058
 10
21.4361981450435
 20
23.5734795174691
 10
21.4486339099418
 20
23.5393125342175
 10
21.4620581509889
 20
23.5055216960297
 10
21.4764595099367
 20
23.4721355933285
 10
21.4840228328322
 20
23.4556031593102
 10
21.4918258017978
 20
23.4391824740897
 10
21.5081440251552
 20
23.4066902199423
 10
21.5254003731627
 20
23.374686322577
 10
21.5343758118974
 20
23.3588759864861
 10
21.5435802452272
 20
23.3431978604863
 10
21.5626682593619
 20
23.3122514760526
 10
21.5826482652011
 20
23.2818733530067
 10
21.5929675112668
 20
23.2669054410473
 10
21.6035033576652
 20
23.2520891942737
 10
21.625215891264
 20
23.2229242002252
 10
21.6477674950262
 20
23.194403047358
 10
21.6711390880436
 20
23.1665498674148
 10
21.6953108956153
 20
23.1393882269665
 10
21.7202624659789
 20
23.1129411074728
 10
21.7330240901448
 20
23.0999925100029
 10
21.7459726876146
 20
23.087230885837
 10
21.7724198071084
 20
23.0622793154734
 10
21.7995814475567
 20
23.0381075079017
 10
21.8274346274998
 20
23.0147359148843
 10
21.855955780367
 20
22.9921843111221
 10
21.8851207744155
 20
22.9704717775233
 10
21.8999370211892
 20
22.9599359311249
 10
21.9149049331486
 20
22.9496166850592
 10
21.9452830561944
 20
22.92963667922
 10
21.9762294406282
 20
22.9105486650853
 10
22.0077179027189
 20
22.8923687930209
 10
22.0397218000842
 20
22.8751124450133
 10
22.0722140542316
 20
22.8587942216559
 10
22.0886347394521
 20
22.8509912526903
 10
22.1051671734704
 20
22.8434279297948
 10
22.1385532761716
 20
22.829026570847
 10
22.1723441143594
 20
22.8156023297999
 10
22.206511097611
 20
22.8031665649016
 10
22.2410253172477
 20
22.7917297980508
 10
22.2758575707937
 20
22.7813017058941
 10
22.2933837602497
 20
22.7764687036248
 10
22.3109783866851
 20
22.7718911116385
 10
22.3463580492054
 20
22.7635059775862
 10
22.3819666236279
 20
22.7561533983978
 10
22.4177739815436
 20
22.7498395950894
 10
22.4537498263529
 20
22.7445699097688
 10
22.4898637188995
 20
22.7403488011161
 10
22.5079628881934
 20
22.7386326138714
 10
22.5260851032247
 20
22.7371798406104
 10
22.5623833324213
 20
22.7350657095088
 10
22.5987276945635
 20
22.7340081965772
 10
22.616907566628
 20
22.7338759864861
 10
22.6350874386925
 20
22.7340081965772
 10
22.6714318008346
 20
22.7350657095088
 10
22.7077300300313
 20
22.7371798406104
 10
22.7258522450625
 20
22.7386326138714
 10
22.7439514143564
 20
22.7403488011161
 10
22.780065306903
 20
22.7445699097688
 10
22.8160411517123
 20
22.7498395950894
 10
22.8518485096281
 20
22.7561533983978
 10
22.8874570840506
 20
22.7635059775862
 10
22.9228367465709
 20
22.7718911116385
 10
22.9404313730061
 20
22.7764687036248
 10
22.9579575624622
 20
22.7813017058941
 10
22.9927898160082
 20
22.7917297980508
 10
23.0273040356449
 20
22.8031665649016
 10
23.0614710188965
 20
22.8156023297999
 10
23.0952618570843
 20
22.829026570847
 10
23.1286479597856
 20
22.8434279297948
 10
23.1451803938038
 20
22.8509912526903
 10
23.1616010790243
 20
22.8587942216559
 10
23.1940933331718
 20
22.8751124450133
 10
23.226097230537
 20
22.8923687930209
 10
23.2575856926278
 20
22.9105486650853
 10
23.2885320770615
 20
22.92963667922
 10
23.3189102001073
 20
22.9496166850592
 10
23.3338781120668
 20
22.9599359311249
 10
23.3486943588404
 20
22.9704717775233
 10
23.3778593528889
 20
22.9921843111221
 10
23.4063805057561
 20
23.0147359148843
 10
23.4342336856993
 20
23.0381075079017
 10
23.4613953261475
 20
23.0622793154734
 10
23.4878424456413
 20
23.087230885837
 10
23.5007910431111
 20
23.0999925100029
 10
23.5135526672771
 20
23.1129411074728
 10
23.5385042376406
 20
23.1393882269665
 10
23.5626760452123
 20
23.1665498674148
 10
23.5860476382298
 20
23.194403047358
 10
23.608599241992
 20
23.2229242002252
 10
23.6303117755907
 20
23.2520891942737
 10
23.6408476219892
 20
23.2669054410473
 10
23.6511668680548
 20
23.2818733530067
 10
23.671146873894
 20
23.3122514760526
 10
23.6902348880287
 20
23.3431978604863
 10
23.6994393213585
 20
23.3588759864861
 10
23.7084147600932
 20
23.374686322577
 10
23.7256711081007
 20
23.4066902199423
 10
23.7419893314581
 20
23.4391824740897
 10
23.7497923004238
 20
23.4556031593102
 10
23.7573556233192
 20
23.4721355933285
 10
23.7717569822671
 20
23.5055216960297
 10
23.7851812233142
 20
23.5393125342175
 10
23.7976169882125
 20
23.5734795174691
 10
23.8090537550632
 20
23.6079937371058
 10
23.81948184722
 20
23.6428259906518
 10
23.8243148494893
 20
23.6603521801079
 10
23.8288924414756
 20
23.6779468065432
 10
23.8372775755279
 20
23.7133264690635
 10
23.8446301547162
 20
23.748935043486
 10
23.8509439580247
 20
23.7847424014017
 10
23.8562136433452
 20
23.820718246211
 10
23.860434751998
 20
23.8568321387576
 10
23.8621509392426
 20
23.8749313080515
 10
23.8636037125037
 20
23.8930535230828
 10
23.8657178436053
 20
23.9293517522794
 10
23.8667753565368
 20
23.9656961144216
 10
23.866907566628
 20
23.9838759864861
  0
ARC
  5
131
330
20
100
AcDbEntity
  8
0
  6
CONTINUOUS
100
AcDbCircle
 10
22.616907566628
 20
23.9838759864861
 40
1.25
100
AcDbArc
 50
180.0
 51
0.0
  0
LWPOLYLINE
  5
132
330
20
100
AcDbEntity
  8
0
  6
CONTINUOUS
100
AcDbPolyline
 90
      131
 70
     0
 43
0.0
 10
23.866907566628
 20
23.9838759864861
 10
23.8667753565368
 20
23.9656961144216
 10
23.8657178436053
 20
23.9293517522794
 10
23.8636037125037
 20
23.8930535230828
 10
23.8621509392426
 20
23.8749313080515
 10
23.860434751998
 20
23.8568321387576
 10
23.8562136433452
 20
23.820718246211
 10
23.8509439580247
 20
23.7847424014017
 10
23.8446301547162
 20
23.748935043486
 10
23.8372775755279
 20
23.7133264690635
 10
23.8288924414756
 20
23.6779468065432
 10
23.8243148494893
 20
23.6603521801079
 10
23.81948184722
 20
23.6428259906518
 10
23.8090537550632
 20
23.6079937371058
 10
23.7976169882125
 20
23.5734795174691
 10
23.7851812233142
 20
23.5393125342175
 10
23.7717569822671
 20
23.5055216960297
 10
23.7573556233192
 20
23.4721355933285
 10
23.7497923004238
 20
23.4556031593102
 10
23.7419893314581
 20
23.4391824740897
 10
23.7256711081007
 20
23.4066902199423
 10
23.7084147600932
 20
23.374686322577
 10
23.6994393213585
 20
23.3588759864861
 10
23.6902348880287
 20
23.3431978604863
 10
23.671146873894
 20
23.3122514760526
 10
23.6511668680548
 20
23.2818733530067
 10
23.6408476219892
 20
23.2669054410473
 10
23.6303117755907
 20
23.2520891942737
 10
23.608599241992
 20
23.2229242002252
 10
23.5860476382298
 20
23.194403047358
 10
23.5626760452123
 20
23.1665498674148
 10
23.5385042376406
 20
23.1393882269665
 10
23.5135526672771
 20
23.1129411074728
 10
23.5007910431111
 20
23.0999925100029
 10
23.4878424456413
 20
23.087230885837
 10
23.4613953261475
 20
23.0622793154734
 10
23.4342336856993
 20
23.0381075079017
 10
23.4063805057561
 20
23.0147359148843
 10
23.3778593528889
 20
22.9921843111221
 10
23.3486943588404
 20
22.9704717775233
 10
23.3338781120668
 20
22.9599359311249
 10
23.3189102001073
 20
22.9496166850592
 10
23.2885320770615
 20
22.92963667922
 10
23.2575856926278
 20
22.9105486650853
 10
23.226097230537
 20
22.8923687930209
 10
23.1940933331718
 20
22.8751124450133
 10
23.1616010790243
 20
22.8587942216559
 10
23.1451803938038
 20
22.8509912526903
 10
23.1286479597856
 20
22.8434279297948
 10
23.0952618570843
 20
22.829026570847
 10
23.0614710188965
 20
22.8156023297999
 10
23.0273040356449
 20
22.8031665649016
 10
22.9927898160082
 20
22.7917297980508
 10
22.9579575624622
 20
22.7813017058941
 10
22.9404313730061
 20
22.7764687036248
 10
22.9228367465709
 20
22.7718911116385
 10
22.8874570840506
 20
22.7635059775862
 10
22.8518485096281
 20
22.7561533983978
 10
22.8160411517123
 20
22.7498395950894
 10
22.780065306903
 20
22.7445699097688
 10
22.7439514143564
 20
22.7403488011161
 10
22.7258522450625
 20
22.7386326138714
 10
22.7077300300313
 20
22.7371798406104
 10
22.6714318008346
 20
22.7350657095088
 10
22.6350874386925
 20
22.7340081965772
 10
22.616907566628
 20
22.7338759864861
 10
22.5987276945635
 20
22.7340081965772
 10
22.5623833324213
 20
22.7350657095088
 10
22.5260851032247
 20
22.7371798406104
 10
22.5079628881934
 20
22.7386326138714
 10
22.4898637188995
 20
22.7403488011161
 10
22.4537498263529
 20
22.7445699097688
 10
22.4177739815436
 20
22.7498395950894
 10
22.3819666236279
 20
22.7561533983978
 10
22.3463580492054
 20
22.7635059775862
 10
22.3109783866851
 20
22.7718911116385
 10
22.2933837602497
 20
22.7764687036248
 10
22.2758575707937
 20
22.7813017058941
 10
22.2410253172477
 20
22.7917297980508
 10
22.206511097611
 20
22.8031665649016
 10
22.1723441143594
 20
22.8156023297999
 10
22.1385532761716
 20
22.829026570847
 10
22.1051671734704
 20
22.8434279297948
 10
22.0886347394521
 20
22.8509912526903
 10
22.0722140542316
 20
22.8587942216559
 10
22.0397218000842
 20
22.8751124450133
 10
22.0077179027189
 20
22.8923687930209
 10
21.9762294406282
 20
22.9105486650853
 10
21.9452830561944
 20
22.92963667922
 10
21.9149049331486
 20
22.9496166850592
 10
21.8999370211892
 20
22.9599359311249
 10
21.8851207744155
 20
22.9704717775233
 10
21.855955780367
 20
22.9921843111221
 10
21.8274346274998
 20
23.0147359148843
 10
21.7995814475567
 20
23.0381075079017
 10
21.7724198071084
 20
23.0622793154734
 10
21.7459726876146
 20
23.087230885837
 10
21.7330240901448
 20
23.0999925100029
 10
21.7202624659789
 20
23.1129411074728
 10
21.6953108956153
 20
23.1393882269665
 10
21.6711390880436
 20
23.1665498674148
 10
21.6477674950262
 20
23.194403047358
 10
21.625215891264
 20
23.2229242002252
 10
21.6035033576652
 20
23.2520891942737
 10
21.5929675112668
 20
23.2669054410473
 10
21.5826482652011
 20
23.2818733530067
 10
21.5626682593619
 20
23.3122514760526
 10
21.5435802452272
 20
23.3431978604863
 10
21.5343758118974
 20
23.3588759864861
 10
21.5254003731627
 20
23.374686322577
 10
21.5081440251552
 20
23.4066902199423
 10
21.4918258017978
 20
23.4391824740897
 10
21.4840228328322
 20
23.4556031593102
 10
21.4764595099367
 20
23.4721355933285
 10
21.4620581509889
 20
23.5055216960297
 10
21.4486339099418
 20
23.5393125342175
 10
21.4361981450435
 20
23.5734795174691
 10
21.4247613781927
 20
23.6079937371058
 10
21.4143332860359
 20
23.6428259906518
 10
21.4095002837667
 20
23.6603521801079
 10
21.4049226917803
 20
23.6779468065432
 10
21.3965375577281
 20
23.7133264690635
 10
21.3891849785397
 20
23.748935043486
 10
21.3828711752313
 20
23.7847424014017
 10
21.3776014899106
 20
23.820718246211
 10
21.373380381258
 20
23.8568321387576
 10
21.3716641940133
 20
23.8749313080515
 10
21.3702114207523
 20
23.8930535230828
 10
21.3680972896507
 20
23.9293517522794
 10
21.367039776719
 20
23.9656961144216
 10
21.366907566628
 20
23.9838759864861
  0
LINE
  5
133
330
20
100
AcDbEntity
  8
0
  6
CONTINUOUS
100
AcDbLine
 10
20.066907566628
 20
22.1338759864861
 11
21.066907566628
 21
21.1338759864861
  0
LINE
  5
134
330
20
100
AcDbEntity
  8
0
  6
CONTINUOUS
100
AcDbLine
 10
20.066907566628
 20
22.1338759864861
 11
20.066907566628
 21
27.0338759864861
  0
LINE
  5
135
330
20
100
AcDbEntity
  8
0
  6
CONTINUOUS
100
AcDbLine
 10
25.166907566628
 20
22.1338759864861
 11
25.166907566628
 21
27.0338759864861
  0
LINE
  5
136
330
20
100
AcDbEntity
  8
0
  6
CONTINUOUS
100
AcDbLine
 10
25.166907566628
 20
22.1338759864861
 11
24.166907566628
 21
21.1338759864861
  0
LINE
  5
137
330
20
100
AcDbEntity
  8
0
  6
CONTINUOUS
100
AcDbLine
 10
21.5028335632568
 20
-30.3661240135139
 11
18.7169075666279
 21
-30.3661240135139
  0
LINE
  5
138
330
20
100
AcDbEntity
  8
0
  6
CONTINUOUS
100
AcDbLine
 10
17.516907566628
 20
-31.8661240135139
 11
33.0169075666279
 21
-31.8661240135139
  0
LINE
  5
139
330
20
100
AcDbEntity
  8
0
  6
CONTINUOUS
100
AcDbLine
 10
19.1169075666279
 20
-37.7661240135139
 11
19.1169075666279
 21
-31.8661240135139
  0
LINE
  5
13A
330
20
100
AcDbEntity
  8
0
  6
CONTINUOUS
100
AcDbLine
 10
26.1169075666279
 20
-37.7661240135139
 11
26.1169075666279
 21
-31.8661240135139
  0
LINE
  5
13B
330
20
100
AcDbEntity
  8
0
  6
CONTINUOUS
100
AcDbLine
 10
19.1169075666279
 20
-37.7661240135139
 11
26.1169075666279
 21
-37.7661240135139
  0
LINE
  5
13C
330
20
100
AcDbEntity
  8
0
  6
CONTINUOUS
100
AcDbLine
 10
21.3669075666279
 20
-37.7661240135139
 11
21.3669075666279
 21
-34.3161240135139
  0
LINE
  5
13D
330
20
100
AcDbEntity
  8
0
  6
CONTINUOUS
100
AcDbLine
 10
23.8669075666279
 20
-34.3161240135139
 11
23.8669075666279
 21
-37.7661240135139
  0
ARC
  5
13E
330
20
100
AcDbEntity
  8
0
  6
CONTINUOUS
100
AcDbCircle
 10
22.6169075666279
 20
-34.3161240135139
 40
1.25
100
AcDbArc
 50
0.0
 51
180.0
  0
LINE
  5
13F
330
20
100
AcDbEntity
  8
0
  6
CONTINUOUS
100
AcDbLine
 10
25.1669075666279
 20
-37.7661240135139
 11
25.1669075666279
 21
-32.8661240135139
  0
LINE
  5
140
330
20
100
AcDbEntity
  8
0
  6
CONTINUOUS
100
AcDbLine
 10
25.1669075666279
 20
-32.8661240135139
 11
24.1669075666279
 21
-31.8661240135139
  0
LINE
  5
141
330
20
100
AcDbEntity
  8
0
  6
CONTINUOUS
100
AcDbLine
 10
20.066907566628
 20
-37.7661240135139
 11
20.066907566628
 21
-32.8661240135139
  0
LINE
  5
142
330
20
100
AcDbEntity
  8
0
  6
CONTINUOUS
100
AcDbLine
 10
20.066907566628
 20
-32.8661240135139
 11
21.066907566628
 21
-31.8661240135139
  0
LINE
  5
143
330
20
100
AcDbEntity
  8
0
  6
CONTINUOUS
100
AcDbLine
 10
-32.578181502158
 20
-33.4661240135139
 11
-34.714446239575
 21
-33.4661240135139
  0
LINE
  5
144
330
20
100
AcDbEntity
  8
0
  6
CONTINUOUS
100
AcDbLine
 10
-28.714446239575
 20
-33.4661240135139
 11
-29.750710976991
 21
-33.4661240135139
  0
LINE
  5
145
330
20
100
AcDbEntity
  8
0
  6
CONTINUOUS
100
AcDbLine
 10
-29.71571551158
 20
22.3338759864861
 11
-28.714446239575
 21
22.3338759864861
  0
LINE
  5
146
330
20
100
AcDbEntity
  8
0
  6
CONTINUOUS
100
AcDbLine
 10
-34.714446239575
 20
22.3338759864861
 11
-32.613176967569
 21
22.3338759864861
  0
LINE
  5
147
330
20
100
AcDbEntity
  8
0
  6
CONTINUOUS
100
AcDbLine
 10
-20.414446239575
 20
-31.8661240135139
 11
-20.414446239575
 21
21.1338759864861
  0
CIRCLE
  5
148
330
20
100
AcDbEntity
  8
0
  6
CONTINUOUS
100
AcDbCircle
 10
-30.014446239575
 20
-27.8661240135139
 40
2.1
  0
CIRCLE
  5
149
330
20
100
AcDbEntity
  8
0
  6
CONTINUOUS
100
AcDbCircle
 10
-30.014446239575
 20
17.1338759864861
 40
2.1
  0
CIRCLE
  5
14A
330
20
100
AcDbEntity
  8
0
  6
CONTINUOUS
100
AcDbCircle
 10
-30.014446239575
 20
12.1338759864861
 40
2.1
  0
CIRCLE
  5
14B
330
20
100
AcDbEntity
  8
0
  6
CONTINUOUS
100
AcDbCircle
 10
-30.014446239575
 20
7.13387598648611
 40
2.1
  0
CIRCLE
  5
14C
330
20
100
AcDbEntity
  8
0
  6
CONTINUOUS
100
AcDbCircle
 10
-30.014446239575
 20
2.13387598648611
 40
2.1
  0
CIRCLE
  5
14D
330
20
100
AcDbEntity
  8
0
  6
CONTINUOUS
100
AcDbCircle
 10
-30.014446239575
 20
-2.86612401351392
 40
2.1
  0
CIRCLE
  5
14E
330
20
100
AcDbEntity
  8
0
  6
CONTINUOUS
100
AcDbCircle
 10
-30.014446239575
 20
-7.86612401351392
 40
2.1
  0
CIRCLE
  5
14F
330
20
100
AcDbEntity
  8
0
  6
CONTINUOUS
100
AcDbCircle
 10
-30.014446239575
 20
-12.8661240135139
 40
2.1
  0
CIRCLE
  5
150
330
20
100
AcDbEntity
  8
0
  6
CONTINUOUS
100
AcDbCircle
 10
-30.014446239575
 20
-17.8661240135139
 40
2.1
  0
CIRCLE
  5
151
330
20
100
AcDbEntity
  8
0
  6
CONTINUOUS
100
AcDbCircle
 10
-30.014446239575
 20
-22.8661240135139
 40
2.1
  0
CIRCLE
  5
152
330
20
100
AcDbEntity
  8
0
  6
CONTINUOUS
100
AcDbCircle
 10
-30.014446239575
 20
-22.8661240135139
 40
2.35
  0
CIRCLE
  5
153
330
20
100
AcDbEntity
  8
0
  6
CONTINUOUS
100
AcDbCircle
 10
-30.014446239575
 20
-17.8661240135139
 40
2.35
  0
CIRCLE
  5
154
330
20
100
AcDbEntity
  8
0
  6
CONTINUOUS
100
AcDbCircle
 10
-30.014446239575
 20
-12.8661240135139
 40
2.35
  0
CIRCLE
  5
155
330
20
100
AcDbEntity
  8
0
  6
CONTINUOUS
100
AcDbCircle
 10
-30.014446239575
 20
-7.86612401351392
 40
2.35
  0
CIRCLE
  5
156
330
20
100
AcDbEntity
  8
0
  6
CONTINUOUS
100
AcDbCircle
 10
-30.014446239575
 20
-2.86612401351392
 40
2.35
  0
CIRCLE
  5
157
330
20
100
AcDbEntity
  8
0
  6
CONTINUOUS
100
AcDbCircle
 10
-30.014446239575
 20
2.13387598648611
 40
2.35
  0
CIRCLE
  5
158
330
20
100
AcDbEntity
  8
0
  6
CONTINUOUS
100
AcDbCircle
 10
-30.014446239575
 20
7.13387598648611
 40
2.35
  0
CIRCLE
  5
159
330
20
100
AcDbEntity
  8
0
  6
CONTINUOUS
100
AcDbCircle
 10
-30.014446239575
 20
12.1338759864861
 40
2.35
  0
CIRCLE
  5
15A
330
20
100
AcDbEntity
  8
0
  6
CONTINUOUS
100
AcDbCircle
 10
-30.014446239575
 20
17.1338759864861
 40
2.35
  0
CIRCLE
  5
15B
330
20
100
AcDbEntity
  8
0
  6
CONTINUOUS
100
AcDbCircle
 10
-30.014446239575
 20
-27.8661240135139
 40
2.35
  0
LINE
  5
15C
330
20
100
AcDbEntity
  8
0
  6
CONTINUOUS
100
AcDbLine
 10
-25.414446239575
 20
-26.2661240135139
 11
-25.414446239575
 21
-29.8661240135139
  0
LINE
  5
15D
330
20
100
AcDbEntity
  8
0
  6
CONTINUOUS
100
AcDbLine
 10
-25.414446239575
 20
18.7338759864861
 11
-25.414446239575
 21
15.1338759864861
  0
LINE
  5
15E
330
20
100
AcDbEntity
  8
0
  6
CONTINUOUS
100
AcDbLine
 10
-25.414446239575
 20
13.7338759864861
 11
-25.414446239575
 21
10.1338759864861
  0
LINE
  5
15F
330
20
100
AcDbEntity
  8
0
  6
CONTINUOUS
100
AcDbLine
 10
-25.414446239575
 20
8.73387598648611
 11
-25.414446239575
 21
5.13387598648611
  0
LINE
  5
160
330
20
100
AcDbEntity
  8
0
  6
CONTINUOUS
100
AcDbLine
 10
-25.414446239575
 20
3.73387598648611
 11
-25.414446239575
 21
0.133875986486114
  0
LINE
  5
161
330
20
100
AcDbEntity
  8
0
  6
CONTINUOUS
100
AcDbLine
 10
-25.414446239575
 20
-1.26612401351389
 11
-25.414446239575
 21
-4.86612401351392
  0
LINE
  5
162
330
20
100
AcDbEntity
  8
0
  6
CONTINUOUS
100
AcDbLine
 10
-25.414446239575
 20
-6.26612401351392
 11
-25.414446239575
 21
-9.86612401351392
  0
LINE
  5
163
330
20
100
AcDbEntity
  8
0
  6
CONTINUOUS
100
AcDbLine
 10
-25.414446239575
 20
-11.2661240135139
 11
-25.414446239575
 21
-14.8661240135139
  0
LINE
  5
164
330
20
100
AcDbEntity
  8
0
  6
CONTINUOUS
100
AcDbLine
 10
-25.414446239575
 20
-16.2661240135139
 11
-25.414446239575
 21
-19.8661240135139
  0
LINE
  5
165
330
20
100
AcDbEntity
  8
0
  6
CONTINUOUS
100
AcDbLine
 10
-22.414446239575
 20
-19.8661240135139
 11
-25.614446239575
 21
-19.8661240135139
  0
LINE
  5
166
330
20
100
AcDbEntity
  8
0
  6
CONTINUOUS
100
AcDbLine
 10
-22.414446239575
 20
-16.2661240135139
 11
-22.414446239575
 21
-19.8661240135139
  0
LINE
  5
167
330
20
100
AcDbEntity
  8
0
  6
CONTINUOUS
100
AcDbLine
 10
-25.614446239575
 20
-16.2661240135139
 11
-22.414446239575
 21
-16.2661240135139
  0
LINE
  5
168
330
20
100
AcDbEntity
  8
0
  6
CONTINUOUS
100
AcDbLine
 10
-22.414446239575
 20
-14.8661240135139
 11
-25.614446239575
 21
-14.8661240135139
  0
LINE
  5
169
330
20
100
AcDbEntity
  8
0
  6
CONTINUOUS
100
AcDbLine
 10
-22.414446239575
 20
-11.2661240135139
 11
-22.414446239575
 21
-14.8661240135139
  0
LINE
  5
16A
330
20
100
AcDbEntity
  8
0
  6
CONTINUOUS
100
AcDbLine
 10
-25.614446239575
 20
-11.2661240135139
 11
-22.414446239575
 21
-11.2661240135139
  0
LINE
  5
16B
330
20
100
AcDbEntity
  8
0
  6
CONTINUOUS
100
AcDbLine
 10
-22.414446239575
 20
-9.86612401351392
 11
-25.614446239575
 21
-9.86612401351392
  0
LINE
  5
16C
330
20
100
AcDbEntity
  8
0
  6
CONTINUOUS
100
AcDbLine
 10
-22.414446239575
 20
-6.26612401351392
 11
-22.414446239575
 21
-9.86612401351392
  0
LINE
  5
16D
330
20
100
AcDbEntity
  8
0
  6
CONTINUOUS
100
AcDbLine
 10
-25.614446239575
 20
-6.26612401351392
 11
-22.414446239575
 21
-6.26612401351392
  0
LINE
  5
16E
330
20
100
AcDbEntity
  8
0
  6
CONTINUOUS
100
AcDbLine
 10
-22.414446239575
 20
-4.86612401351392
 11
-25.614446239575
 21
-4.86612401351392
  0
LINE
  5
16F
330
20
100
AcDbEntity
  8
0
  6
CONTINUOUS
100
AcDbLine
 10
-22.414446239575
 20
-1.26612401351389
 11
-22.414446239575
 21
-4.86612401351392
  0
LINE
  5
170
330
20
100
AcDbEntity
  8
0
  6
CONTINUOUS
100
AcDbLine
 10
-25.614446239575
 20
-1.26612401351389
 11
-22.414446239575
 21
-1.26612401351389
  0
LINE
  5
171
330
20
100
AcDbEntity
  8
0
  6
CONTINUOUS
100
AcDbLine
 10
-22.414446239575
 20
0.133875986486114
 11
-25.614446239575
 21
0.133875986486114
  0
LINE
  5
172
330
20
100
AcDbEntity
  8
0
  6
CONTINUOUS
100
AcDbLine
 10
-22.414446239575
 20
3.73387598648611
 11
-22.414446239575
 21
0.133875986486114
  0
LINE
  5
173
330
20
100
AcDbEntity
  8
0
  6
CONTINUOUS
100
AcDbLine
 10
-25.614446239575
 20
3.73387598648611
 11
-22.414446239575
 21
3.73387598648611
  0
LINE
  5
174
330
20
100
AcDbEntity
  8
0
  6
CONTINUOUS
100
AcDbLine
 10
-22.414446239575
 20
5.13387598648611
 11
-25.614446239575
 21
5.13387598648611
  0
LINE
  5
175
330
20
100
AcDbEntity
  8
0
  6
CONTINUOUS
100
AcDbLine
 10
-22.414446239575
 20
8.73387598648611
 11
-22.414446239575
 21
5.13387598648611
  0
LINE
  5
176
330
20
100
AcDbEntity
  8
0
  6
CONTINUOUS
100
AcDbLine
 10
-25.614446239575
 20
8.73387598648611
 11
-22.414446239575
 21
8.73387598648611
  0
LINE
  5
177
330
20
100
AcDbEntity
  8
0
  6
CONTINUOUS
100
AcDbLine
 10
-22.414446239575
 20
10.1338759864861
 11
-25.614446239575
 21
10.1338759864861
  0
LINE
  5
178
330
20
100
AcDbEntity
  8
0
  6
CONTINUOUS
100
AcDbLine
 10
-22.414446239575
 20
13.7338759864861
 11
-22.414446239575
 21
10.1338759864861
  0
LINE
  5
179
330
20
100
AcDbEntity
  8
0
  6
CONTINUOUS
100
AcDbLine
 10
-25.614446239575
 20
13.7338759864861
 11
-22.414446239575
 21
13.7338759864861
  0
LINE
  5
17A
330
20
100
AcDbEntity
  8
0
  6
CONTINUOUS
100
AcDbLine
 10
-22.414446239575
 20
15.1338759864861
 11
-25.614446239575
 21
15.1338759864861
  0
LINE
  5
17B
330
20
100
AcDbEntity
  8
0
  6
CONTINUOUS
100
AcDbLine
 10
-22.414446239575
 20
18.7338759864861
 11
-22.414446239575
 21
15.1338759864861
  0
LINE
  5
17C
330
20
100
AcDbEntity
  8
0
  6
CONTINUOUS
100
AcDbLine
 10
-25.614446239575
 20
18.7338759864861
 11
-22.414446239575
 21
18.7338759864861
  0
LINE
  5
17D
330
20
100
AcDbEntity
  8
0
  6
CONTINUOUS
100
AcDbLine
 10
-22.414446239575
 20
-29.8661240135139
 11
-25.614446239575
 21
-29.8661240135139
  0
LINE
  5
17E
330
20
100
AcDbEntity
  8
0
  6
CONTINUOUS
100
AcDbLine
 10
-22.414446239575
 20
-26.2661240135139
 11
-22.414446239575
 21
-29.8661240135139
  0
LINE
  5
17F
330
20
100
AcDbEntity
  8
0
  6
CONTINUOUS
100
AcDbLine
 10
-25.614446239575
 20
-26.2661240135139
 11
-22.414446239575
 21
-26.2661240135139
  0
LINE
  5
180
330
20
100
AcDbEntity
  8
0
  6
CONTINUOUS
100
AcDbLine
 10
-22.414446239575
 20
-24.8661240135139
 11
-25.614446239575
 21
-24.8661240135139
  0
LINE
  5
181
330
20
100
AcDbEntity
  8
0
  6
CONTINUOUS
100
AcDbLine
 10
-22.414446239575
 20
-21.2661240135139
 11
-22.414446239575
 21
-24.8661240135139
  0
LINE
  5
182
330
20
100
AcDbEntity
  8
0
  6
CONTINUOUS
100
AcDbLine
 10
-25.614446239575
 20
-21.2661240135139
 11
-22.414446239575
 21
-21.2661240135139
  0
LINE
  5
183
330
20
100
AcDbEntity
  8
0
  6
CONTINUOUS
100
AcDbLine
 10
-25.414446239575
 20
-21.2661240135139
 11
-25.414446239575
 21
-24.8661240135139
  0
LINE
  5
184
330
20
100
AcDbEntity
  8
0
  6
CONTINUOUS
100
AcDbLine
 10
-34.714446239575
 20
-31.8661240135139
 11
-20.414446239575
 21
-31.8661240135139
  0
LINE
  5
185
330
20
100
AcDbEntity
  8
0
  6
CONTINUOUS
100
AcDbLine
 10
-28.714446239575
 20
-37.7661240135139
 11
-21.514446239575
 21
-31.8661240135139
  0
LINE
  5
186
330
20
100
AcDbEntity
  8
0
  6
CONTINUOUS
100
AcDbLine
 10
-32.595679234863
 20
-33.2661240135139
 11
-29.733213244286
 21
-33.2661240135139
  0
LINE
  5
187
330
20
100
AcDbEntity
  8
0
  6
CONTINUOUS
100
AcDbLine
 10
-29.978181502158
 20
-36.0661240135139
 11
-32.350710976991
 21
-36.0661240135139
  0
LINE
  5
188
330
20
100
AcDbEntity
  8
0
  6
CONTINUOUS
100
AcDbLine
 10
-34.714446239575
 20
-37.7661240135139
 11
-28.714446239575
 21
-37.7661240135139
  0
LINE
  5
189
330
20
100
AcDbEntity
  8
0
  6
CONTINUOUS
100
AcDbLine
 10
-32.595679234863
 20
-33.2661240135139
 11
-32.350710976991
 21
-36.0661240135139
  0
LINE
  5
18A
330
20
100
AcDbEntity
  8
0
  6
CONTINUOUS
100
AcDbLine
 10
-29.978181502158
 20
-36.0661240135139
 11
-29.733213244286
 21
-33.2661240135139
  0
LWPOLYLINE
  5
18B
330
20
100
AcDbEntity
  8
0
  6
CONTINUOUS
100
AcDbPolyline
 90
      131
 70
     0
 43
0.0
 10
-32.468820672751
 20
-34.7161240135139
 10
-32.469615960135
 20
-34.7070338371159
 10
-32.471206366672
 20
-34.6888554072207
 10
-32.472796268548
 20
-34.6706827456214
 10
-32.473590925131
 20
-34.6615997793072
 10
-32.474385329442
 20
-34.6525196964928
 10
-32.475973213209
 20
-34.6343701019762
 10
-32.477559583956
 20
-34.616237801367
 10
-32.479144106108
 20
-34.5981266303022
 10
-32.48072644448
 20
-34.5800404199489
 10
-32.482306264351
 20
-34.5619829961946
 10
-32.483095125391
 20
-34.5529662732388
 10
-32.483883231532
 20
-34.543958178837
 10
-32.485457012437
 20
-34.5259697807765
 10
-32.487027274155
 20
-34.5080216072095
 10
-32.488593684519
 20
-34.4901174548234
 10
-32.490155912176
 20
-34.4722611109937
 10
-32.491713626659
 20
-34.4544563529825
 10
-32.492490688448
 20
-34.4455744960913
 10
-32.493266498454
 20
-34.4367069471397
 10
-32.494814199074
 20
-34.4190166481062
 10
-32.496356401124
 20
-34.4013891980196
 10
-32.49712533819
 20
-34.3926002071357
 10
-32.497892778371
 20
-34.3838283257229
 10
-32.499423005818
 20
-34.3663377459752
 10
-32.500946759764
 20
-34.3489211586664
 10
-32.501706108392
 20
-34.3402417641336
 10
-32.502463717883
 20
-34.3315822480342
 10
-32.503973559281
 20
-34.314324681885
 10
-32.505475964573
 20
-34.2971521108177
 10
-32.506970615945
 20
-34.280068167452
 10
-32.508457197226
 20
-34.2630764656593
 10
-32.50993539395
 20
-34.2461805997987
 10
-32.510671250315
 20
-34.2377697230575
 10
-32.511404893423
 20
-34.2293841439566
 10
-32.512865384795
 20
-34.2126906511905
 10
-32.514316559118
 20
-34.1961036527775
 10
-32.515758109417
 20
-34.1796266574674
 10
-32.517189730751
 20
-34.1632631507402
 10
-32.518611120281
 20
-34.147016594069
 10
-32.519317884072
 20
-34.1389382469701
 10
-32.520021977331
 20
-34.1308904241879
 10
-32.521422003456
 20
-34.1148880523647
 10
-32.522810902497
 20
-34.0990128636794
 10
-32.524188380653
 20
-34.0832682163082
 10
-32.525554146538
 20
-34.0676574408133
 10
-32.526907911242
 20
-34.0521838394377
 10
-32.52758020356
 20
-34.0444995030804
 10
-32.528249388396
 20
-34.0368506854077
 10
-32.529578294228
 20
-34.0216612222394
 10
-32.530894347627
 20
-34.0066186630534
 10
-32.5321972702
 20
-33.9917261898946
 10
-32.533486786333
 20
-33.9769869530594
 10
-32.534762623244
 20
-33.9624040704292
 10
-32.535395327538
 20
-33.955172227253
 10
-32.53602451105
 20
-33.9479806268108
 10
-32.537272182815
 20
-33.9337196732838
 10
-32.538505374611
 20
-33.9196242265554
 10
-32.539723825573
 20
-33.9056972683221
 10
-32.540927277956
 20
-33.8919417446388
 10
-32.542115477186
 20
-33.8783605652962
 10
-32.542703778195
 20
-33.8716362539943
 10
-32.543288171916
 20
-33.8649566032044
 10
-32.544445114077
 20
-33.8517326937861
 10
-32.545586058936
 20
-33.8386916343759
 10
-32.546150456821
 20
-33.8322405370307
 10
-32.546710765141
 20
-33.8258361836295
 10
-32.547818994776
 20
-33.8131690609392
 10
-32.54891051341
 20
-33.8006929458594
 10
-32.549449933808
 20
-33.7945273425013
 10
-32.549985090148
 20
-33.7884104775394
 10
-32.551042497678
 20
-33.7763242541652
 10
-32.55208251232
 20
-33.7644368324099
 10
-32.553104914074
 20
-33.7527507268928
 10
-32.554109486664
 20
-33.7412684096478
 10
-32.555096017587
 20
-33.7299923095999
 10
-32.555582452058
 20
-33.7244323381499
 10
-32.556064298156
 20
-33.7189248120519
 10
-32.557014123545
 20
-33.7080682581796
 10
-32.557945292831
 20
-33.6974249445364
 10
-32.558857609038
 20
-33.6869971225681
 10
-32.559750879179
 20
-33.6767869981357
 10
-32.560624914295
 20
-33.6667967310498
 10
-32.56105466078
 20
-33.6618847062478
 10
-32.561479529495
 20
-33.6570284346129
 10
-32.562314543998
 20
-33.6474841751727
 10
-32.563129781168
 20
-33.6381659716852
 10
-32.563925068552
 20
-33.6290757952872
 10
-32.564700237919
 20
-33.6202155688795
 10
-32.565455125292
 20
-33.6115871667204
 10
-32.565824913161
 20
-33.6073604720411
 10
-32.566189570986
 20
-33.6031924140287
 10
-32.566903419638
 20
-33.595033086598
 10
-32.567596520244
 20
-33.5871109104212
 10
-32.568268726188
 20
-33.5794275613247
 10
-32.568919895273
 20
-33.5719846646146
 10
-32.569549889756
 20
-33.5647837947326
 10
-32.569856904699
 20
-33.5612745978748
 10
-32.570158576368
 20
-33.557826474923
 10
-32.57074582635
 20
-33.5511141769104
 10
-32.571311515478
 20
-33.5446483205884
 10
-32.571855524088
 20
-33.5384302737194
 10
-32.572377737103
 20
-33.532461351645
 10
-32.572878044056
 20
-33.526742817008
 10
-32.573119949505
 20
-33.5239778250786
 10
-32.573356339114
 20
-33.5212758794852
 10
-32.573812521099
 20
-33.5160616955315
 10
-32.574246493514
 20
-33.5111013681352
 10
-32.57445512226
 20
-33.5087167306526
 10
-32.574658164556
 20
-33.5063959465849
 10
-32.575047447144
 20
-33.5019464262473
 10
-32.575414258929
 20
-33.4977537483569
 10
-32.575589213837
 20
-33.495754004614
 10
-32.575758522318
 20
-33.4938187998164
 10
-32.576080164486
 20
-33.4901424130099
 10
-32.576379117395
 20
-33.4867253656259
 10
-32.576655317805
 20
-33.4835683804935
 10
-32.57690870729
 20
-33.4806721254292
 10
-32.577139232249
 20
-33.4780372130956
 10
-32.577245905102
 20
-33.4768179367966
 10
-32.577346843917
 20
-33.4756642008719
 10
-32.577531498377
 20
-33.473553590736
 10
-32.577693156567
 20
-33.4717058291582
 10
-32.577831784293
 20
-33.4701213070068
 10
-32.577947352228
 20
-33.4688003594657
 10
-32.578039835926
 20
-33.4677432659628
 10
-32.578077414881
 20
-33.4673137365366
 10
-32.578109215823
 20
-33.4669502501117
 10
-32.578155477242
 20
-33.466421479664
 10
-32.578178610399
 20
-33.4661570664737
 10
-32.578181502158
 20
-33.4661240135139
  0
LWPOLYLINE
  5
18C
330
20
100
AcDbEntity
  8
0
  6
CONTINUOUS
100
AcDbPolyline
 90
      131
 70
     0
 43
0.0
 10
-32.578181502158
 20
-33.4661240135139
 10
-32.578178610399
 20
-33.4661570664737
 10
-32.578155477242
 20
-33.466421479664
 10
-32.578109215823
 20
-33.4669502501117
 10
-32.578077414881
 20
-33.4673137365366
 10
-32.578039835926
 20
-33.4677432659628
 10
-32.577947352228
 20
-33.4688003594657
 10
-32.577831784293
 20
-33.4701213070068
 10
-32.577693156567
 20
-33.4717058291582
 10
-32.577531498377
 20
-33.473553590736
 10
-32.577346843917
 20
-33.4756642008719
 10
-32.577245905102
 20
-33.4768179367966
 10
-32.577139232249
 20
-33.4780372130956
 10
-32.57690870729
 20
-33.4806721254292
 10
-32.576655317805
 20
-33.4835683804935
 10
-32.576379117395
 20
-33.4867253656259
 10
-32.576080164486
 20
-33.4901424130099
 10
-32.575758522318
 20
-33.4938187998164
 10
-32.575589213837
 20
-33.495754004614
 10
-32.575414258929
 20
-33.4977537483569
 10
-32.575047447144
 20
-33.5019464262473
 10
-32.574658164556
 20
-33.5063959465849
 10
-32.57445512226
 20
-33.5087167306526
 10
-32.574246493514
 20
-33.5111013681352
 10
-32.573812521099
 20
-33.5160616955315
 10
-32.573356339114
 20
-33.5212758794852
 10
-32.573119949505
 20
-33.5239778250786
 10
-32.572878044056
 20
-33.526742817008
 10
-32.572377737103
 20
-33.532461351645
 10
-32.571855524088
 20
-33.5384302737194
 10
-32.571311515478
 20
-33.5446483205884
 10
-32.57074582635
 20
-33.5511141769104
 10
-32.570158576368
 20
-33.557826474923
 10
-32.569856904699
 20
-33.5612745978748
 10
-32.569549889756
 20
-33.5647837947326
 10
-32.568919895273
 20
-33.5719846646146
 10
-32.568268726188
 20
-33.5794275613247
 10
-32.567596520244
 20
-33.5871109104212
 10
-32.566903419638
 20
-33.595033086598
 10
-32.566189570986
 20
-33.6031924140287
 10
-32.565824913161
 20
-33.6073604720411
 10
-32.565455125292
 20
-33.6115871667204
 10
-32.564700237919
 20
-33.6202155688795
 10
-32.563925068552
 20
-33.6290757952872
 10
-32.563129781168
 20
-33.6381659716852
 10
-32.562314543998
 20
-33.6474841751727
 10
-32.561479529495
 20
-33.6570284346129
 10
-32.56105466078
 20
-33.6618847062478
 10
-32.560624914295
 20
-33.6667967310498
 10
-32.559750879179
 20
-33.6767869981357
 10
-32.558857609038
 20
-33.6869971225681
 10
-32.557945292831
 20
-33.6974249445364
 10
-32.557014123545
 20
-33.7080682581796
 10
-32.556064298156
 20
-33.7189248120519
 10
-32.555582452058
 20
-33.7244323381499
 10
-32.555096017587
 20
-33.7299923095999
 10
-32.554109486664
 20
-33.7412684096478
 10
-32.553104914074
 20
-33.7527507268928
 10
-32.55208251232
 20
-33.7644368324099
 10
-32.551042497678
 20
-33.7763242541652
 10
-32.549985090148
 20
-33.7884104775394
 10
-32.549449933808
 20
-33.7945273425013
 10
-32.54891051341
 20
-33.8006929458594
 10
-32.547818994776
 20
-33.8131690609392
 10
-32.546710765141
 20
-33.8258361836295
 10
-32.546150456821
 20
-33.8322405370307
 10
-32.545586058936
 20
-33.8386916343759
 10
-32.544445114077
 20
-33.8517326937861
 10
-32.543288171916
 20
-33.8649566032044
 10
-32.542703778195
 20
-33.8716362539943
 10
-32.542115477186
 20
-33.8783605652962
 10
-32.540927277956
 20
-33.8919417446388
 10
-32.539723825573
 20
-33.9056972683221
 10
-32.538505374611
 20
-33.9196242265554
 10
-32.537272182815
 20
-33.9337196732838
 10
-32.53602451105
 20
-33.9479806268108
 10
-32.535395327538
 20
-33.955172227253
 10
-32.534762623244
 20
-33.9624040704292
 10
-32.533486786333
 20
-33.9769869530594
 10
-32.5321972702
 20
-33.9917261898946
 10
-32.530894347627
 20
-34.0066186630534
 10
-32.529578294228
 20
-34.0216612222394
 10
-32.528249388396
 20
-34.0368506854077
 10
-32.52758020356
 20
-34.0444995030804
 10
-32.526907911242
 20
-34.0521838394377
 10
-32.525554146538
 20
-34.0676574408133
 10
-32.524188380653
 20
-34.0832682163082
 10
-32.522810902497
 20
-34.0990128636794
 10
-32.521422003456
 20
-34.1148880523647
 10
-32.520021977331
 20
-34.1308904241879
 10
-32.519317884072
 20
-34.1389382469701
 10
-32.518611120281
 20
-34.147016594069
 10
-32.517189730751
 20
-34.1632631507402
 10
-32.515758109417
 20
-34.1796266574674
 10
-32.514316559118
 20
-34.1961036527775
 10
-32.512865384795
 20
-34.2126906511905
 10
-32.511404893423
 20
-34.2293841439566
 10
-32.510671250315
 20
-34.2377697230575
 10
-32.50993539395
 20
-34.2461805997987
 10
-32.508457197226
 20
-34.2630764656593
 10
-32.506970615945
 20
-34.280068167452
 10
-32.505475964573
 20
-34.2971521108177
 10
-32.503973559281
 20
-34.314324681885
 10
-32.502463717883
 20
-34.3315822480342
 10
-32.501706108392
 20
-34.3402417641336
 10
-32.500946759764
 20
-34.3489211586664
 10
-32.499423005818
 20
-34.3663377459752
 10
-32.497892778371
 20
-34.3838283257229
 10
-32.49712533819
 20
-34.3926002071357
 10
-32.496356401124
 20
-34.4013891980196
 10
-32.494814199074
 20
-34.4190166481062
 10
-32.493266498454
 20
-34.4367069471397
 10
-32.492490688448
 20
-34.4455744960913
 10
-32.491713626659
 20
-34.4544563529825
 10
-32.490155912176
 20
-34.4722611109937
 10
-32.488593684519
 20
-34.4901174548234
 10
-32.487027274155
 20
-34.5080216072095
 10
-32.485457012437
 20
-34.5259697807765
 10
-32.483883231532
 20
-34.543958178837
 10
-32.483095125391
 20
-34.5529662732388
 10
-32.482306264351
 20
-34.5619829961946
 10
-32.48072644448
 20
-34.5800404199489
 10
-32.479144106108
 20
-34.5981266303022
 10
-32.477559583956
 20
-34.616237801367
 10
-32.475973213209
 20
-34.6343701019762
 10
-32.474385329442
 20
-34.6525196964928
 10
-32.473590925131
 20
-34.6615997793072
 10
-32.472796268548
 20
-34.6706827456214
 10
-32.471206366672
 20
-34.6888554072207
 10
-32.469615960135
 20
-34.7070338371159
 10
-32.468820672751
 20
-34.7161240135139
  0
LINE
  5
18D
330
20
100
AcDbEntity
  8
0
  6
CONTINUOUS
100
AcDbLine
 10
-32.468820672751
 20
-34.7161240135139
 11
-34.714446239575
 21
-34.7161240135139
  0
LWPOLYLINE
  5
18E
330
20
100
AcDbEntity
  8
0
  6
CONTINUOUS
100
AcDbPolyline
 90
      131
 70
     0
 43
0.0
 10
-29.860071806398
 20
-34.7161240135139
 10
-29.859276519014
 20
-34.7070338371159
 10
-29.857686112477
 20
-34.6888554072207
 10
-29.856096210601
 20
-34.6706827456214
 10
-29.855301554018
 20
-34.6615997793072
 10
-29.854507149708
 20
-34.6525196964928
 10
-29.85291926594
 20
-34.6343701019762
 10
-29.851332895193
 20
-34.616237801367
 10
-29.849748373042
 20
-34.5981266303022
 10
-29.848166034669
 20
-34.5800404199489
 10
-29.846586214799
 20
-34.5619829961946
 10
-29.845797353758
 20
-34.5529662732388
 10
-29.845009247618
 20
-34.543958178837
 10
-29.843435466712
 20
-34.5259697807765
 10
-29.841865204994
 20
-34.5080216072095
 10
-29.84029879463
 20
-34.4901174548234
 10
-29.838736566973
 20
-34.4722611109937
 10
-29.83717885249
 20
-34.4544563529825
 10
-29.836401790701
 20
-34.4455744960913
 10
-29.835625980695
 20
-34.4367069471397
 10
-29.834078280075
 20
-34.4190166481062
 10
-29.832536078026
 20
-34.4013891980196
 10
-29.831767140959
 20
-34.3926002071357
 10
-29.830999700778
 20
-34.3838283257229
 10
-29.829469473332
 20
-34.3663377459752
 10
-29.827945719385
 20
-34.3489211586664
 10
-29.827186370757
 20
-34.3402417641336
 10
-29.826428761267
 20
-34.3315822480342
 10
-29.824918919868
 20
-34.314324681885
 10
-29.823416514576
 20
-34.2971521108177
 10
-29.821921863204
 20
-34.280068167452
 10
-29.820435281923
 20
-34.2630764656593
 10
-29.8189570852
 20
-34.2461805997987
 10
-29.818221228834
 20
-34.2377697230575
 10
-29.817487585726
 20
-34.2293841439566
 10
-29.816027094354
 20
-34.2126906511905
 10
-29.814575920031
 20
-34.1961036527775
 10
-29.813134369733
 20
-34.1796266574674
 10
-29.811702748398
 20
-34.1632631507402
 10
-29.810281358868
 20
-34.147016594069
 10
-29.809574595077
 20
-34.1389382469701
 10
-29.808870501818
 20
-34.1308904241879
 10
-29.807470475694
 20
-34.1148880523647
 10
-29.806081576652
 20
-34.0990128636794
 10
-29.804704098496
 20
-34.0832682163082
 10
-29.803338332611
 20
-34.0676574408133
 10
-29.801984567907
 20
-34.0521838394377
 10
-29.801312275589
 20
-34.0444995030804
 10
-29.800643090753
 20
-34.0368506854077
 10
-29.799314184921
 20
-34.0216612222394
 10
-29.797998131522
 20
-34.0066186630534
 10
-29.796695208949
 20
-33.9917261898946
 10
-29.795405692817
 20
-33.9769869530594
 10
-29.794129855905
 20
-33.9624040704292
 10
-29.793497151611
 20
-33.955172227253
 10
-29.792867968099
 20
-33.9479806268108
 10
-29.791620296335
 20
-33.9337196732838
 10
-29.790387104539
 20
-33.9196242265554
 10
-29.789168653576
 20
-33.9056972683221
 10
-29.787965201193
 20
-33.8919417446388
 10
-29.786777001963
 20
-33.8783605652962
 10
-29.786188700954
 20
-33.8716362539943
 10
-29.785604307233
 20
-33.8649566032044
 10
-29.784447365072
 20
-33.8517326937861
 10
-29.783306420213
 20
-33.8386916343759
 10
-29.782742022328
 20
-33.8322405370307
 10
-29.782181714008
 20
-33.8258361836295
 10
-29.781073484373
 20
-33.8131690609392
 10
-29.779981965739
 20
-33.8006929458594
 10
-29.779442545341
 20
-33.7945273425013
 10
-29.778907389001
 20
-33.7884104775394
 10
-29.777849981471
 20
-33.7763242541652
 10
-29.776809966829
 20
-33.7644368324099
 10
-29.775787565075
 20
-33.7527507268928
 10
-29.774782992485
 20
-33.7412684096478
 10
-29.773796461562
 20
-33.7299923095999
 10
-29.773310027091
 20
-33.7244323381499
 10
-29.772828180993
 20
-33.7189248120519
 10
-29.771878355604
 20
-33.7080682581796
 10
-29.770947186318
 20
-33.6974249445364
 10
-29.770034870111
 20
-33.6869971225681
 10
-29.76914159997
 20
-33.6767869981357
 10
-29.768267564854
 20
-33.6667967310498
 10
-29.767837818369
 20
-33.6618847062478
 10
-29.767412949654
 20
-33.6570284346129
 10
-29.766577935151
 20
-33.6474841751727
 10
-29.765762697982
 20
-33.6381659716852
 10
-29.764967410597
 20
-33.6290757952872
 10
-29.76419224123
 20
-33.6202155688795
 10
-29.763437353857
 20
-33.6115871667204
 10
-29.763067565989
 20
-33.6073604720411
 10
-29.762702908164
 20
-33.6031924140287
 10
-29.761989059511
 20
-33.595033086598
 10
-29.761295958905
 20
-33.5871109104212
 10
-29.760623752962
 20
-33.5794275613247
 10
-29.759972583876
 20
-33.5719846646146
 10
-29.759342589393
 20
-33.5647837947326
 10
-29.75903557445
 20
-33.5612745978748
 10
-29.758733902782
 20
-33.557826474923
 10
-29.758146652799
 20
-33.5511141769104
 10
-29.757580963671
 20
-33.5446483205884
 10
-29.757036955061
 20
-33.5384302737194
 10
-29.756514742046
 20
-33.532461351645
 10
-29.756014435093
 20
-33.526742817008
 10
-29.755772529645
 20
-33.5239778250786
 10
-29.755536140036
 20
-33.5212758794852
 10
-29.75507995805
 20
-33.5160616955315
 10
-29.754645985636
 20
-33.5111013681352
 10
-29.754437356889
 20
-33.5087167306526
 10
-29.754234314593
 20
-33.5063959465849
 10
-29.753845032005
 20
-33.5019464262473
 10
-29.75347822022
 20
-33.4977537483569
 10
-29.753303265313
 20
-33.495754004614
 10
-29.753133956831
 20
-33.4938187998164
 10
-29.752812314663
 20
-33.4901424130099
 10
-29.752513361754
 20
-33.4867253656259
 10
-29.752237161344
 20
-33.4835683804935
 10
-29.751983771859
 20
-33.4806721254292
 10
-29.751753246901
 20
-33.4780372130956
 10
-29.751646574047
 20
-33.4768179367966
 10
-29.751545635233
 20
-33.4756642008719
 10
-29.751360980773
 20
-33.473553590736
 10
-29.751199322582
 20
-33.4717058291582
 10
-29.751060694856
 20
-33.4701213070068
 10
-29.750945126921
 20
-33.4688003594657
 10
-29.750852643224
 20
-33.4677432659628
 10
-29.750815064268
 20
-33.4673137365366
 10
-29.750783263327
 20
-33.4669502501117
 10
-29.750737001907
 20
-33.466421479664
 10
-29.75071386875
 20
-33.4661570664737
 10
-29.750710976991
 20
-33.4661240135139
  0
LWPOLYLINE
  5
18F
330
20
100
AcDbEntity
  8
0
  6
CONTINUOUS
100
AcDbPolyline
 90
      131
 70
     0
 43
0.0
 10
-29.750710976991
 20
-33.4661240135139
 10
-29.75071386875
 20
-33.4661570664737
 10
-29.750737001907
 20
-33.466421479664
 10
-29.750783263327
 20
-33.4669502501117
 10
-29.750815064268
 20
-33.4673137365366
 10
-29.750852643224
 20
-33.4677432659628
 10
-29.750945126921
 20
-33.4688003594657
 10
-29.751060694856
 20
-33.4701213070068
 10
-29.751199322582
 20
-33.4717058291582
 10
-29.751360980773
 20
-33.473553590736
 10
-29.751545635233
 20
-33.4756642008719
 10
-29.751646574047
 20
-33.4768179367966
 10
-29.751753246901
 20
-33.4780372130956
 10
-29.751983771859
 20
-33.4806721254292
 10
-29.752237161344
 20
-33.4835683804935
 10
-29.752513361754
 20
-33.4867253656259
 10
-29.752812314663
 20
-33.4901424130099
 10
-29.753133956831
 20
-33.4938187998164
 10
-29.753303265313
 20
-33.495754004614
 10
-29.75347822022
 20
-33.4977537483569
 10
-29.753845032005
 20
-33.5019464262473
 10
-29.754234314593
 20
-33.5063959465849
 10
-29.754437356889
 20
-33.5087167306526
 10
-29.754645985636
 20
-33.5111013681352
 10
-29.75507995805
 20
-33.5160616955315
 10
-29.755536140036
 20
-33.5212758794852
 10
-29.755772529645
 20
-33.5239778250786
 10
-29.756014435093
 20
-33.526742817008
 10
-29.756514742046
 20
-33.532461351645
 10
-29.757036955061
 20
-33.5384302737194
 10
-29.757580963671
 20
-33.5446483205884
 10
-29.758146652799
 20
-33.5511141769104
 10
-29.758733902782
 20
-33.557826474923
 10
-29.75903557445
 20
-33.5612745978748
 10
-29.759342589393
 20
-33.5647837947326
 10
-29.759972583876
 20
-33.5719846646146
 10
-29.760623752962
 20
-33.5794275613247
 10
-29.761295958905
 20
-33.5871109104212
 10
-29.761989059511
 20
-33.595033086598
 10
-29.762702908164
 20
-33.6031924140287
 10
-29.763067565989
 20
-33.6073604720411
 10
-29.763437353857
 20
-33.6115871667204
 10
-29.76419224123
 20
-33.6202155688795
 10
-29.764967410597
 20
-33.6290757952872
 10
-29.765762697982
 20
-33.6381659716852
 10
-29.766577935151
 20
-33.6474841751727
 10
-29.767412949654
 20
-33.6570284346129
 10
-29.767837818369
 20
-33.6618847062478
 10
-29.768267564854
 20
-33.6667967310498
 10
-29.76914159997
 20
-33.6767869981357
 10
-29.770034870111
 20
-33.6869971225681
 10
-29.770947186318
 20
-33.6974249445364
 10
-29.771878355604
 20
-33.7080682581796
 10
-29.772828180993
 20
-33.7189248120519
 10
-29.773310027091
 20
-33.7244323381499
 10
-29.773796461562
 20
-33.7299923095999
 10
-29.774782992485
 20
-33.7412684096478
 10
-29.775787565075
 20
-33.7527507268928
 10
-29.776809966829
 20
-33.7644368324099
 10
-29.777849981471
 20
-33.7763242541652
 10
-29.778907389001
 20
-33.7884104775394
 10
-29.779442545341
 20
-33.7945273425013
 10
-29.779981965739
 20
-33.8006929458594
 10
-29.781073484373
 20
-33.8131690609392
 10
-29.782181714008
 20
-33.8258361836295
 10
-29.782742022328
 20
-33.8322405370307
 10
-29.783306420213
 20
-33.8386916343759
 10
-29.784447365072
 20
-33.8517326937861
 10
-29.785604307233
 20
-33.8649566032044
 10
-29.786188700954
 20
-33.8716362539943
 10
-29.786777001963
 20
-33.8783605652962
 10
-29.787965201193
 20
-33.8919417446388
 10
-29.789168653576
 20
-33.9056972683221
 10
-29.790387104539
 20
-33.9196242265554
 10
-29.791620296335
 20
-33.9337196732838
 10
-29.792867968099
 20
-33.9479806268108
 10
-29.793497151611
 20
-33.955172227253
 10
-29.794129855905
 20
-33.9624040704292
 10
-29.795405692817
 20
-33.9769869530594
 10
-29.796695208949
 20
-33.9917261898946
 10
-29.797998131522
 20
-34.0066186630534
 10
-29.799314184921
 20
-34.0216612222394
 10
-29.800643090753
 20
-34.0368506854077
 10
-29.801312275589
 20
-34.0444995030804
 10
-29.801984567907
 20
-34.0521838394377
 10
-29.803338332611
 20
-34.0676574408133
 10
-29.804704098496
 20
-34.0832682163082
 10
-29.806081576652
 20
-34.0990128636794
 10
-29.807470475694
 20
-34.1148880523647
 10
-29.808870501818
 20
-34.1308904241879
 10
-29.809574595077
 20
-34.1389382469701
 10
-29.810281358868
 20
-34.147016594069
 10
-29.811702748398
 20
-34.1632631507402
 10
-29.813134369733
 20
-34.1796266574674
 10
-29.814575920031
 20
-34.1961036527775
 10
-29.816027094354
 20
-34.2126906511905
 10
-29.817487585726
 20
-34.2293841439566
 10
-29.818221228834
 20
-34.2377697230575
 10
-29.8189570852
 20
-34.2461805997987
 10
-29.820435281923
 20
-34.2630764656593
 10
-29.821921863204
 20
-34.280068167452
 10
-29.823416514576
 20
-34.2971521108177
 10
-29.824918919868
 20
-34.314324681885
 10
-29.826428761267
 20
-34.3315822480342
 10
-29.827186370757
 20
-34.3402417641336
 10
-29.827945719385
 20
-34.3489211586664
 10
-29.829469473332
 20
-34.3663377459752
 10
-29.830999700778
 20
-34.3838283257229
 10
-29.831767140959
 20
-34.3926002071357
 10
-29.832536078026
 20
-34.4013891980196
 10
-29.834078280075
 20
-34.4190166481062
 10
-29.835625980695
 20
-34.4367069471397
 10
-29.836401790701
 20
-34.4455744960913
 10
-29.83717885249
 20
-34.4544563529825
 10
-29.838736566973
 20
-34.4722611109937
 10
-29.84029879463
 20
-34.4901174548234
 10
-29.841865204994
 20
-34.5080216072095
 10
-29.843435466712
 20
-34.5259697807765
 10
-29.845009247618
 20
-34.543958178837
 10
-29.845797353758
 20
-34.5529662732388
 10
-29.846586214799
 20
-34.5619829961946
 10
-29.848166034669
 20
-34.5800404199489
 10
-29.849748373042
 20
-34.5981266303022
 10
-29.851332895193
 20
-34.616237801367
 10
-29.85291926594
 20
-34.6343701019762
 10
-29.854507149708
 20
-34.6525196964928
 10
-29.855301554018
 20
-34.6615997793072
 10
-29.856096210601
 20
-34.6706827456214
 10
-29.857686112477
 20
-34.6888554072207
 10
-29.859276519014
 20
-34.7070338371159
 10
-29.860071806398
 20
-34.7161240135139
  0
LINE
  5
190
330
20
100
AcDbEntity
  8
0
  6
CONTINUOUS
100
AcDbLine
 10
-28.714446239575
 20
-34.7161240135139
 11
-29.860071806398
 21
-34.7161240135139
  0
LINE
  5
191
330
20
100
AcDbEntity
  8
0
  6
CONTINUOUS
100
AcDbLine
 10
-28.714446239575
 20
-31.8661240135139
 11
-28.714446239575
 21
-37.7661240135139
  0
LINE
  5
192
330
20
100
AcDbEntity
  8
0
  6
CONTINUOUS
100
AcDbLine
 10
-20.414446239575
 20
21.1338759864861
 11
-34.714446239575
 21
21.1338759864861
  0
LINE
  5
193
330
20
100
AcDbEntity
  8
0
  6
CONTINUOUS
100
AcDbLine
 10
-32.31571551158
 20
25.7338759864861
 11
-30.013176967569
 21
25.7338759864861
  0
LINE
  5
194
330
20
100
AcDbEntity
  8
0
  6
CONTINUOUS
100
AcDbLine
 10
-29.698217778875
 20
22.1338759864861
 11
-32.630674700274
 21
22.1338759864861
  0
LINE
  5
195
330
20
100
AcDbEntity
  8
0
  6
CONTINUOUS
100
AcDbLine
 10
-34.714446239575
 20
27.0338759864861
 11
-28.714446239575
 21
27.0338759864861
  0
LINE
  5
196
330
20
100
AcDbEntity
  8
0
  6
CONTINUOUS
100
AcDbLine
 10
-30.013176967569
 20
25.7338759864861
 11
-29.698217778875
 21
22.1338759864861
  0
LINE
  5
197
330
20
100
AcDbEntity
  8
0
  6
CONTINUOUS
100
AcDbLine
 10
-32.630674700274
 20
22.1338759864861
 11
-32.31571551158
 21
25.7338759864861
  0
LINE
  5
198
330
20
100
AcDbEntity
  8
0
  6
CONTINUOUS
100
AcDbLine
 10
-29.825076340988
 20
23.5838759864861
 11
-28.714446239575
 21
23.5838759864861
  0
LWPOLYLINE
  5
199
330
20
100
AcDbEntity
  8
0
  6
CONTINUOUS
100
AcDbPolyline
 90
      131
 70
     0
 43
0.0
 10
-29.825076340988
 20
23.5838759864861
 10
-29.824281053604
 20
23.5747858100881
 10
-29.822690647067
 20
23.5566073801929
 10
-29.821100745191
 20
23.5384347185936
 10
-29.820306088607
 20
23.5293517522794
 10
-29.819511684297
 20
23.520271669465
 10
-29.817923800529
 20
23.5021220749484
 10
-29.816337429783
 20
23.4839897743392
 10
-29.814752907631
 20
23.4658786032744
 10
-29.813170569259
 20
23.4477923929211
 10
-29.811590749388
 20
23.4297349691668
 10
-29.810801888347
 20
23.420718246211
 10
-29.810013782207
 20
23.4117101518092
 10
-29.808440001302
 20
23.3937217537487
 10
-29.806869739584
 20
23.3757735801817
 10
-29.80530332922
 20
23.3578694277957
 10
-29.803741101563
 20
23.3400130839659
 10
-29.80218338708
 20
23.3222083259547
 10
-29.801406325291
 20
23.3133264690635
 10
-29.800630515284
 20
23.3044589201119
 10
-29.799082814665
 20
23.2867686210784
 10
-29.797540612615
 20
23.2691411709918
 10
-29.796771675549
 20
23.2603521801079
 10
-29.796004235368
 20
23.2515802986951
 10
-29.794474007921
 20
23.2340897189474
 10
-29.792950253974
 20
23.2166731316385
 10
-29.792190905346
 20
23.2079937371058
 10
-29.791433295856
 20
23.1993342210064
 10
-29.789923454458
 20
23.1820766548572
 10
-29.788421049166
 20
23.1649040837899
 10
-29.786926397793
 20
23.1478201404242
 10
-29.785439816512
 20
23.1308284386315
 10
-29.783961619789
 20
23.1139325727709
 10
-29.783225763424
 20
23.1055216960297
 10
-29.782492120316
 20
23.0971361169288
 10
-29.781031628944
 20
23.0804426241627
 10
-29.779580454621
 20
23.0638556257497
 10
-29.778138904322
 20
23.0473786304396
 10
-29.776707282988
 20
23.0310151237123
 10
-29.775285893458
 20
23.0147685670412
 10
-29.774579129667
 20
23.0066902199423
 10
-29.773875036407
 20
22.9986423971601
 10
-29.772475010283
 20
22.9826400253369
 10
-29.771086111242
 20
22.9667648366516
 10
-29.769708633086
 20
22.9510201892804
 10
-29.768342867201
 20
22.9354094137854
 10
-29.766989102497
 20
22.9199358124099
 10
-29.766316810179
 20
22.9122514760526
 10
-29.765647625343
 20
22.9046026583799
 10
-29.764318719511
 20
22.8894131952116
 10
-29.763002666112
 20
22.8743706360256
 10
-29.761699743538
 20
22.8594781628668
 10
-29.760410227406
 20
22.8447389260316
 10
-29.759134390495
 20
22.8301560434014
 10
-29.7585016862
 20
22.8229242002252
 10
-29.757872502689
 20
22.815732599783
 10
-29.756624830924
 20
22.801471646256
 10
-29.755391639128
 20
22.7873761995276
 10
-29.754173188165
 20
22.7734492412943
 10
-29.752969735782
 20
22.759693717611
 10
-29.751781536552
 20
22.7461125382684
 10
-29.751193235544
 20
22.7393882269665
 10
-29.750608841823
 20
22.7327085761766
 10
-29.749451899662
 20
22.7194846667583
 10
-29.748310954803
 20
22.7064436073481
 10
-29.747746556918
 20
22.6999925100029
 10
-29.747186248598
 20
22.6935881566017
 10
-29.746078018963
 20
22.6809210339114
 10
-29.744986500329
 20
22.6684449188316
 10
-29.744447079931
 20
22.6622793154735
 10
-29.743911923591
 20
22.6561624505116
 10
-29.74285451606
 20
22.6440762271374
 10
-29.741814501418
 20
22.6321888053821
 10
-29.740792099665
 20
22.620502699865
 10
-29.739787527075
 20
22.60902038262
 10
-29.738800996152
 20
22.5977442825721
 10
-29.738314561681
 20
22.5921843111221
 10
-29.737832715583
 20
22.5866767850241
 10
-29.736882890194
 20
22.5758202311517
 10
-29.735951720908
 20
22.5651769175086
 10
-29.7350394047
 20
22.5547490955402
 10
-29.734146134559
 20
22.5445389711079
 10
-29.733272099444
 20
22.534548704022
 10
-29.732842352959
 20
22.52963667922
 10
-29.732417484244
 20
22.5247804075851
 10
-29.731582469741
 20
22.5152361481449
 10
-29.730767232571
 20
22.5059179446574
 10
-29.729971945187
 20
22.4968277682594
 10
-29.72919677582
 20
22.4879675418517
 10
-29.728441888447
 20
22.4793391396926
 10
-29.728072100578
 20
22.4751124450133
 10
-29.727707442753
 20
22.4709443870009
 10
-29.726993594101
 20
22.4627850595702
 10
-29.726300493495
 20
22.4548628833934
 10
-29.725628287551
 20
22.4471795342969
 10
-29.724977118465
 20
22.4397366375868
 10
-29.724347123983
 20
22.4325357677048
 10
-29.72404010904
 20
22.429026570847
 10
-29.723738437371
 20
22.4255784478952
 10
-29.723151187389
 20
22.4188661498826
 10
-29.722585498261
 20
22.4124002935606
 10
-29.72204148965
 20
22.4061822466916
 10
-29.721519276635
 20
22.4002133246172
 10
-29.721018969683
 20
22.3944947899802
 10
-29.720777064234
 20
22.3917297980508
 10
-29.720540674625
 20
22.3890278524574
 10
-29.72008449264
 20
22.3838136685037
 10
-29.719650520225
 20
22.3788533411074
 10
-29.719441891479
 20
22.3764687036248
 10
-29.719238849182
 20
22.3741479195571
 10
-29.718849566595
 20
22.3696983992195
 10
-29.71848275481
 20
22.365505721329
 10
-29.718307799902
 20
22.3635059775862
 10
-29.718138491421
 20
22.3615707727886
 10
-29.717816849252
 20
22.3578943859821
 10
-29.717517896344
 20
22.3544773385981
 10
-29.717241695934
 20
22.3513203534657
 10
-29.716988306449
 20
22.3484240984014
 10
-29.71675778149
 20
22.3457891860678
 10
-29.716651108636
 20
22.3445699097688
 10
-29.716550169822
 20
22.3434161738441
 10
-29.716365515362
 20
22.3413055637082
 10
-29.716203857171
 20
22.3394578021304
 10
-29.716065229446
 20
22.337873279979
 10
-29.715949661511
 20
22.3365523324378
 10
-29.715857177813
 20
22.335495238935
 10
-29.715819598858
 20
22.3350657095088
 10
-29.715787797916
 20
22.3347022230839
 10
-29.715741536496
 20
22.3341734526362
 10
-29.71571840334
 20
22.3339090394459
 10
-29.71571551158
 20
22.3338759864861
  0
LWPOLYLINE
  5
19A
330
20
100
AcDbEntity
  8
0
  6
CONTINUOUS
100
AcDbPolyline
 90
      131
 70
     0
 43
0.0
 10
-29.71571551158
 20
22.3338759864861
 10
-29.71571840334
 20
22.3339090394459
 10
-29.715741536496
 20
22.3341734526362
 10
-29.715787797916
 20
22.3347022230839
 10
-29.715819598858
 20
22.3350657095088
 10
-29.715857177813
 20
22.335495238935
 10
-29.715949661511
 20
22.3365523324378
 10
-29.716065229446
 20
22.337873279979
 10
-29.716203857171
 20
22.3394578021304
 10
-29.716365515362
 20
22.3413055637082
 10
-29.716550169822
 20
22.3434161738441
 10
-29.716651108636
 20
22.3445699097688
 10
-29.71675778149
 20
22.3457891860678
 10
-29.716988306449
 20
22.3484240984014
 10
-29.717241695934
 20
22.3513203534657
 10
-29.717517896344
 20
22.3544773385981
 10
-29.717816849252
 20
22.3578943859821
 10
-29.718138491421
 20
22.3615707727886
 10
-29.718307799902
 20
22.3635059775862
 10
-29.71848275481
 20
22.365505721329
 10
-29.718849566595
 20
22.3696983992195
 10
-29.719238849182
 20
22.3741479195571
 10
-29.719441891479
 20
22.3764687036248
 10
-29.719650520225
 20
22.3788533411074
 10
-29.72008449264
 20
22.3838136685037
 10
-29.720540674625
 20
22.3890278524574
 10
-29.720777064234
 20
22.3917297980508
 10
-29.721018969683
 20
22.3944947899802
 10
-29.721519276635
 20
22.4002133246172
 10
-29.72204148965
 20
22.4061822466916
 10
-29.722585498261
 20
22.4124002935606
 10
-29.723151187389
 20
22.4188661498826
 10
-29.723738437371
 20
22.4255784478952
 10
-29.72404010904
 20
22.429026570847
 10
-29.724347123983
 20
22.4325357677048
 10
-29.724977118465
 20
22.4397366375868
 10
-29.725628287551
 20
22.4471795342969
 10
-29.726300493495
 20
22.4548628833934
 10
-29.726993594101
 20
22.4627850595702
 10
-29.727707442753
 20
22.4709443870009
 10
-29.728072100578
 20
22.4751124450133
 10
-29.728441888447
 20
22.4793391396926
 10
-29.72919677582
 20
22.4879675418517
 10
-29.729971945187
 20
22.4968277682594
 10
-29.730767232571
 20
22.5059179446574
 10
-29.731582469741
 20
22.5152361481449
 10
-29.732417484244
 20
22.5247804075851
 10
-29.732842352959
 20
22.52963667922
 10
-29.733272099444
 20
22.534548704022
 10
-29.734146134559
 20
22.5445389711079
 10
-29.7350394047
 20
22.5547490955402
 10
-29.735951720908
 20
22.5651769175086
 10
-29.736882890194
 20
22.5758202311517
 10
-29.737832715583
 20
22.5866767850241
 10
-29.738314561681
 20
22.5921843111221
 10
-29.738800996152
 20
22.5977442825721
 10
-29.739787527075
 20
22.60902038262
 10
-29.740792099665
 20
22.620502699865
 10
-29.741814501418
 20
22.6321888053821
 10
-29.74285451606
 20
22.6440762271374
 10
-29.743911923591
 20
22.6561624505116
 10
-29.744447079931
 20
22.6622793154735
 10
-29.744986500329
 20
22.6684449188316
 10
-29.746078018963
 20
22.6809210339114
 10
-29.747186248598
 20
22.6935881566017
 10
-29.747746556918
 20
22.6999925100029
 10
-29.748310954803
 20
22.7064436073481
 10
-29.749451899662
 20
22.7194846667583
 10
-29.750608841823
 20
22.7327085761766
 10
-29.751193235544
 20
22.7393882269665
 10
-29.751781536552
 20
22.7461125382684
 10
-29.752969735782
 20
22.759693717611
 10
-29.754173188165
 20
22.7734492412943
 10
-29.755391639128
 20
22.7873761995276
 10
-29.756624830924
 20
22.801471646256
 10
-29.757872502689
 20
22.815732599783
 10
-29.7585016862
 20
22.8229242002252
 10
-29.759134390495
 20
22.8301560434014
 10
-29.760410227406
 20
22.8447389260316
 10
-29.761699743538
 20
22.8594781628668
 10
-29.763002666112
 20
22.8743706360256
 10
-29.764318719511
 20
22.8894131952116
 10
-29.765647625343
 20
22.9046026583799
 10
-29.766316810179
 20
22.9122514760526
 10
-29.766989102497
 20
22.9199358124099
 10
-29.768342867201
 20
22.9354094137854
 10
-29.769708633086
 20
22.9510201892804
 10
-29.771086111242
 20
22.9667648366516
 10
-29.772475010283
 20
22.9826400253369
 10
-29.773875036407
 20
22.9986423971601
 10
-29.774579129667
 20
23.0066902199423
 10
-29.775285893458
 20
23.0147685670412
 10
-29.776707282988
 20
23.0310151237123
 10
-29.778138904322
 20
23.0473786304396
 10
-29.779580454621
 20
23.0638556257497
 10
-29.781031628944
 20
23.0804426241627
 10
-29.782492120316
 20
23.0971361169288
 10
-29.783225763424
 20
23.1055216960297
 10
-29.783961619789
 20
23.1139325727709
 10
-29.785439816512
 20
23.1308284386315
 10
-29.786926397793
 20
23.1478201404242
 10
-29.788421049166
 20
23.1649040837899
 10
-29.789923454458
 20
23.1820766548572
 10
-29.791433295856
 20
23.1993342210064
 10
-29.792190905346
 20
23.2079937371058
 10
-29.792950253974
 20
23.2166731316385
 10
-29.794474007921
 20
23.2340897189474
 10
-29.796004235368
 20
23.2515802986951
 10
-29.796771675549
 20
23.2603521801079
 10
-29.797540612615
 20
23.2691411709918
 10
-29.799082814665
 20
23.2867686210784
 10
-29.800630515284
 20
23.3044589201119
 10
-29.801406325291
 20
23.3133264690635
 10
-29.80218338708
 20
23.3222083259547
 10
-29.803741101563
 20
23.3400130839659
 10
-29.80530332922
 20
23.3578694277957
 10
-29.806869739584
 20
23.3757735801817
 10
-29.808440001302
 20
23.3937217537487
 10
-29.810013782207
 20
23.4117101518092
 10
-29.810801888347
 20
23.420718246211
 10
-29.811590749388
 20
23.4297349691668
 10
-29.813170569259
 20
23.4477923929211
 10
-29.814752907631
 20
23.4658786032744
 10
-29.816337429783
 20
23.4839897743392
 10
-29.817923800529
 20
23.5021220749484
 10
-29.819511684297
 20
23.520271669465
 10
-29.820306088607
 20
23.5293517522794
 10
-29.821100745191
 20
23.5384347185936
 10
-29.822690647067
 20
23.5566073801929
 10
-29.824281053604
 20
23.5747858100881
 10
-29.825076340988
 20
23.5838759864861
  0
LWPOLYLINE
  5
19B
330
20
100
AcDbEntity
  8
0
  6
CONTINUOUS
100
AcDbPolyline
 90
      131
 70
     0
 43
0.0
 10
-32.503816138161
 20
23.5838759864861
 10
-32.504611425546
 20
23.5747858100881
 10
-32.506201832082
 20
23.5566073801929
 10
-32.507791733958
 20
23.5384347185936
 10
-32.508586390542
 20
23.5293517522794
 10
-32.509380794852
 20
23.520271669465
 10
-32.51096867862
 20
23.5021220749484
 10
-32.512555049367
 20
23.4839897743392
 10
-32.514139571518
 20
23.4658786032744
 10
-32.51572190989
 20
23.4477923929211
 10
-32.517301729761
 20
23.4297349691668
 10
-32.518090590802
 20
23.420718246211
 10
-32.518878696942
 20
23.4117101518092
 10
-32.520452477847
 20
23.3937217537487
 10
-32.522022739565
 20
23.3757735801817
 10
-32.523589149929
 20
23.3578694277957
 10
-32.525151377586
 20
23.3400130839659
 10
-32.526709092069
 20
23.3222083259547
 10
-32.527486153858
 20
23.3133264690635
 10
-32.528261963865
 20
23.3044589201119
 10
-32.529809664484
 20
23.2867686210784
 10
-32.531351866534
 20
23.2691411709918
 10
-32.5321208036
 20
23.2603521801079
 10
-32.532888243781
 20
23.2515802986951
 10
-32.534418471228
 20
23.2340897189474
 10
-32.535942225175
 20
23.2166731316385
 10
-32.536701573803
 20
23.2079937371058
 10
-32.537459183293
 20
23.1993342210064
 10
-32.538969024691
 20
23.1820766548572
 10
-32.540471429983
 20
23.1649040837899
 10
-32.541966081356
 20
23.1478201404242
 10
-32.543452662637
 20
23.1308284386315
 10
-32.54493085936
 20
23.1139325727709
 10
-32.545666715725
 20
23.1055216960297
 10
-32.546400358834
 20
23.0971361169288
 10
-32.547860850205
 20
23.0804426241627
 10
-32.549312024528
 20
23.0638556257497
 10
-32.550753574827
 20
23.0473786304396
 10
-32.552185196161
 20
23.0310151237123
 10
-32.553606585691
 20
23.0147685670412
 10
-32.554313349482
 20
23.0066902199423
 10
-32.555017442742
 20
22.9986423971601
 10
-32.556417468866
 20
22.9826400253369
 10
-32.557806367907
 20
22.9667648366516
 10
-32.559183846063
 20
22.9510201892804
 10
-32.560549611948
 20
22.9354094137854
 10
-32.561903376652
 20
22.9199358124099
 10
-32.56257566897
 20
22.9122514760526
 10
-32.563244853806
 20
22.9046026583799
 10
-32.564573759638
 20
22.8894131952116
 10
-32.565889813038
 20
22.8743706360256
 10
-32.567192735611
 20
22.8594781628668
 10
-32.568482251743
 20
22.8447389260316
 10
-32.569758088655
 20
22.8301560434014
 10
-32.570390792949
 20
22.8229242002252
 10
-32.57101997646
 20
22.815732599783
 10
-32.572267648225
 20
22.801471646256
 10
-32.573500840021
 20
22.7873761995276
 10
-32.574719290984
 20
22.7734492412943
 10
-32.575922743367
 20
22.759693717611
 10
-32.577110942597
 20
22.7461125382684
 10
-32.577699243606
 20
22.7393882269665
 10
-32.578283637326
 20
22.7327085761766
 10
-32.579440579488
 20
22.7194846667583
 10
-32.580581524346
 20
22.7064436073481
 10
-32.581145922231
 20
22.6999925100029
 10
-32.581706230551
 20
22.6935881566017
 10
-32.582814460186
 20
22.6809210339114
 10
-32.58390597882
 20
22.6684449188316
 10
-32.584445399218
 20
22.6622793154735
 10
-32.584980555559
 20
22.6561624505116
 10
-32.586037963089
 20
22.6440762271374
 10
-32.587077977731
 20
22.6321888053821
 10
-32.588100379484
 20
22.620502699865
 10
-32.589104952074
 20
22.60902038262
 10
-32.590091482997
 20
22.5977442825721
 10
-32.590577917469
 20
22.5921843111221
 10
-32.591059763566
 20
22.5866767850241
 10
-32.592009588955
 20
22.5758202311517
 10
-32.592940758241
 20
22.5651769175086
 10
-32.593853074449
 20
22.5547490955402
 10
-32.59474634459
 20
22.5445389711079
 10
-32.595620379705
 20
22.534548704022
 10
-32.59605012619
 20
22.52963667922
 10
-32.596474994906
 20
22.5247804075851
 10
-32.597310009408
 20
22.5152361481449
 10
-32.598125246578
 20
22.5059179446574
 10
-32.598920533962
 20
22.4968277682594
 10
-32.599695703329
 20
22.4879675418517
 10
-32.600450590702
 20
22.4793391396926
 10
-32.600820378571
 20
22.4751124450133
 10
-32.601185036396
 20
22.4709443870009
 10
-32.601898885048
 20
22.4627850595702
 10
-32.602591985654
 20
22.4548628833934
 10
-32.603264191598
 20
22.4471795342969
 10
-32.603915360684
 20
22.4397366375868
 10
-32.604545355166
 20
22.4325357677048
 10
-32.604852370109
 20
22.429026570847
 10
-32.605154041778
 20
22.4255784478952
 10
-32.60574129176
 20
22.4188661498826
 10
-32.606306980888
 20
22.4124002935606
 10
-32.606850989499
 20
22.4061822466916
 10
-32.607373202514
 20
22.4002133246172
 10
-32.607873509466
 20
22.3944947899802
 10
-32.608115414915
 20
22.3917297980508
 10
-32.608351804524
 20
22.3890278524574
 10
-32.608807986509
 20
22.3838136685037
 10
-32.609241958924
 20
22.3788533411074
 10
-32.60945058767
 20
22.3764687036248
 10
-32.609653629967
 20
22.3741479195571
 10
-32.610042912554
 20
22.3696983992195
 10
-32.61040972434
 20
22.365505721329
 10
-32.610584679247
 20
22.3635059775862
 10
-32.610753987728
 20
22.3615707727886
 10
-32.611075629897
 20
22.3578943859821
 10
-32.611374582806
 20
22.3544773385981
 10
-32.611650783216
 20
22.3513203534657
 10
-32.6119041727
 20
22.3484240984014
 10
-32.612134697659
 20
22.3457891860678
 10
-32.612241370513
 20
22.3445699097688
 10
-32.612342309327
 20
22.3434161738441
 10
-32.612526963787
 20
22.3413055637082
 10
-32.612688621978
 20
22.3394578021304
 10
-32.612827249703
 20
22.337873279979
 10
-32.612942817638
 20
22.3365523324378
 10
-32.613035301336
 20
22.335495238935
 10
-32.613072880291
 20
22.3350657095088
 10
-32.613104681233
 20
22.3347022230839
 10
-32.613150942653
 20
22.3341734526362
 10
-32.613174075809
 20
22.3339090394459
 10
-32.613176967569
 20
22.3338759864861
  0
LWPOLYLINE
  5
19C
330
20
100
AcDbEntity
  8
0
  6
CONTINUOUS
100
AcDbPolyline
 90
      131
 70
     0
 43
0.0
 10
-32.613176967569
 20
22.3338759864861
 10
-32.613174075809
 20
22.3339090394459
 10
-32.613150942653
 20
22.3341734526362
 10
-32.613104681233
 20
22.3347022230839
 10
-32.613072880291
 20
22.3350657095088
 10
-32.613035301336
 20
22.335495238935
 10
-32.612942817638
 20
22.3365523324378
 10
-32.612827249703
 20
22.337873279979
 10
-32.612688621978
 20
22.3394578021304
 10
-32.612526963787
 20
22.3413055637082
 10
-32.612342309327
 20
22.3434161738441
 10
-32.612241370513
 20
22.3445699097688
 10
-32.612134697659
 20
22.3457891860678
 10
-32.6119041727
 20
22.3484240984014
 10
-32.611650783216
 20
22.3513203534657
 10
-32.611374582806
 20
22.3544773385981
 10
-32.611075629897
 20
22.3578943859821
 10
-32.610753987728
 20
22.3615707727886
 10
-32.610584679247
 20
22.3635059775862
 10
-32.61040972434
 20
22.365505721329
 10
-32.610042912554
 20
22.3696983992195
 10
-32.609653629967
 20
22.3741479195571
 10
-32.60945058767
 20
22.3764687036248
 10
-32.609241958924
 20
22.3788533411074
 10
-32.608807986509
 20
22.3838136685037
 10
-32.608351804524
 20
22.3890278524574
 10
-32.608115414915
 20
22.3917297980508
 10
-32.607873509466
 20
22.3944947899802
 10
-32.607373202514
 20
22.4002133246172
 10
-32.606850989499
 20
22.4061822466916
 10
-32.606306980888
 20
22.4124002935606
 10
-32.60574129176
 20
22.4188661498826
 10
-32.605154041778
 20
22.4255784478952
 10
-32.604852370109
 20
22.429026570847
 10
-32.604545355166
 20
22.4325357677048
 10
-32.603915360684
 20
22.4397366375868
 10
-32.603264191598
 20
22.4471795342969
 10
-32.602591985654
 20
22.4548628833934
 10
-32.601898885048
 20
22.4627850595702
 10
-32.601185036396
 20
22.4709443870009
 10
-32.600820378571
 20
22.4751124450133
 10
-32.600450590702
 20
22.4793391396926
 10
-32.599695703329
 20
22.4879675418517
 10
-32.598920533962
 20
22.4968277682594
 10
-32.598125246578
 20
22.5059179446574
 10
-32.597310009408
 20
22.5152361481449
 10
-32.596474994906
 20
22.5247804075851
 10
-32.59605012619
 20
22.52963667922
 10
-32.595620379705
 20
22.534548704022
 10
-32.59474634459
 20
22.5445389711079
 10
-32.593853074449
 20
22.5547490955402
 10
-32.592940758241
 20
22.5651769175086
 10
-32.592009588955
 20
22.5758202311517
 10
-32.591059763566
 20
22.5866767850241
 10
-32.590577917469
 20
22.5921843111221
 10
-32.590091482997
 20
22.5977442825721
 10
-32.589104952074
 20
22.60902038262
 10
-32.588100379484
 20
22.620502699865
 10
-32.587077977731
 20
22.6321888053821
 10
-32.586037963089
 20
22.6440762271374
 10
-32.584980555559
 20
22.6561624505116
 10
-32.584445399218
 20
22.6622793154735
 10
-32.58390597882
 20
22.6684449188316
 10
-32.582814460186
 20
22.6809210339114
 10
-32.581706230551
 20
22.6935881566017
 10
-32.581145922231
 20
22.6999925100029
 10
-32.580581524346
 20
22.7064436073481
 10
-32.579440579488
 20
22.7194846667583
 10
-32.578283637326
 20
22.7327085761766
 10
-32.577699243606
 20
22.7393882269665
 10
-32.577110942597
 20
22.7461125382684
 10
-32.575922743367
 20
22.759693717611
 10
-32.574719290984
 20
22.7734492412943
 10
-32.573500840021
 20
22.7873761995276
 10
-32.572267648225
 20
22.801471646256
 10
-32.57101997646
 20
22.815732599783
 10
-32.570390792949
 20
22.8229242002252
 10
-32.569758088655
 20
22.8301560434014
 10
-32.568482251743
 20
22.8447389260316
 10
-32.567192735611
 20
22.8594781628668
 10
-32.565889813038
 20
22.8743706360256
 10
-32.564573759638
 20
22.8894131952116
 10
-32.563244853806
 20
22.9046026583799
 10
-32.56257566897
 20
22.9122514760526
 10
-32.561903376652
 20
22.9199358124099
 10
-32.560549611948
 20
22.9354094137854
 10
-32.559183846063
 20
22.9510201892804
 10
-32.557806367907
 20
22.9667648366516
 10
-32.556417468866
 20
22.9826400253369
 10
-32.555017442742
 20
22.9986423971601
 10
-32.554313349482
 20
23.0066902199423
 10
-32.553606585691
 20
23.0147685670412
 10
-32.552185196161
 20
23.0310151237123
 10
-32.550753574827
 20
23.0473786304396
 10
-32.549312024528
 20
23.0638556257497
 10
-32.547860850205
 20
23.0804426241627
 10
-32.546400358834
 20
23.0971361169288
 10
-32.545666715725
 20
23.1055216960297
 10
-32.54493085936
 20
23.1139325727709
 10
-32.543452662637
 20
23.1308284386315
 10
-32.541966081356
 20
23.1478201404242
 10
-32.540471429983
 20
23.1649040837899
 10
-32.538969024691
 20
23.1820766548572
 10
-32.537459183293
 20
23.1993342210064
 10
-32.536701573803
 20
23.2079937371058
 10
-32.535942225175
 20
23.2166731316385
 10
-32.534418471228
 20
23.2340897189474
 10
-32.532888243781
 20
23.2515802986951
 10
-32.5321208036
 20
23.2603521801079
 10
-32.531351866534
 20
23.2691411709918
 10
-32.529809664484
 20
23.2867686210784
 10
-32.528261963865
 20
23.3044589201119
 10
-32.527486153858
 20
23.3133264690635
 10
-32.526709092069
 20
23.3222083259547
 10
-32.525151377586
 20
23.3400130839659
 10
-32.523589149929
 20
23.3578694277957
 10
-32.522022739565
 20
23.3757735801817
 10
-32.520452477847
 20
23.3937217537487
 10
-32.518878696942
 20
23.4117101518092
 10
-32.518090590802
 20
23.420718246211
 10
-32.517301729761
 20
23.4297349691668
 10
-32.51572190989
 20
23.4477923929211
 10
-32.514139571518
 20
23.4658786032744
 10
-32.512555049367
 20
23.4839897743392
 10
-32.51096867862
 20
23.5021220749484
 10
-32.509380794852
 20
23.520271669465
 10
-32.508586390542
 20
23.5293517522794
 10
-32.507791733958
 20
23.5384347185936
 10
-32.506201832082
 20
23.5566073801929
 10
-32.504611425546
 20
23.5747858100881
 10
-32.503816138161
 20
23.5838759864861
  0
LINE
  5
19D
330
20
100
AcDbEntity
  8
0
  6
CONTINUOUS
100
AcDbLine
 10
-34.714446239575
 20
23.5838759864861
 11
-32.503816138161
 21
23.5838759864861
  0
LINE
  5
19E
330
20
100
AcDbEntity
  8
0
  6
CONTINUOUS
100
AcDbLine
 10
-21.514446239575
 20
21.1338759864861
 11
-28.714446239575
 21
27.0338759864861
  0
LINE
  5
19F
330
20
100
AcDbEntity
  8
0
  6
CONTINUOUS
100
AcDbLine
 10
-28.714446239575
 20
21.1338759864861
 11
-28.714446239575
 21
27.0338759864861
  0
CIRCLE
  5
1A0
330
20
100
AcDbEntity
  8
0
  6
CONTINUOUS
100
AcDbCircle
 10
25.6855537604254
 20
58.2336486293174
 40
1.75
  0
LINE
  5
1A1
330
20
100
AcDbEntity
  8
0
  6
CENTER
100
AcDbLine
 10
25.6855537604254
 20
55.4836486293174
 11
25.6855537604254
 21
60.9836486293174
  0
LINE
  5
1A2
330
20
100
AcDbEntity
  8
0
  6
CENTER
100
AcDbLine
 10
22.9355537604254
 20
58.2336486293174
 11
28.4355537604254
 21
58.2336486293174
  0
CIRCLE
  5
1A3
330
20
100
AcDbEntity
  8
0
  6
CONTINUOUS
100
AcDbCircle
 10
25.6855537604254
 20
-43.7663513706826
 40
1.75
  0
LINE
  5
1A4
330
20
100
AcDbEntity
  8
0
  6
CENTER
100
AcDbLine
 10
25.6855537604254
 20
-46.5163513706826
 11
25.6855537604254
 21
-41.0163513706826
  0
LINE
  5
1A5
330
20
100
AcDbEntity
  8
0
  6
CENTER
100
AcDbLine
 10
22.9355537604254
 20
-43.7663513706826
 11
28.4355537604254
 21
-43.7663513706826
  0
LINE
  5
1A6
330
20
100
AcDbEntity
  8
0
  6
CONTINUOUS
100
AcDbLine
 10
16.6855537604254
 20
39.4786486293174
 11
16.6855537604254
 21
37.1886486293174
  0
LINE
  5
1A7
330
20
100
AcDbEntity
  8
0
  6
CONTINUOUS
100
AcDbLine
 10
16.6855537604254
 20
32.0786486293174
 11
16.6855537604254
 21
29.7886486293174
  0
LINE
  5
1A8
330
20
100
AcDbEntity
  8
0
  6
CONTINUOUS
100
AcDbLine
 10
16.6855537604254
 20
37.2336486293174
 11
28.2055537604254
 21
37.2336486293174
  0
LINE
  5
1A9
330
20
100
AcDbEntity
  8
0
  6
CONTINUOUS
100
AcDbLine
 10
16.6855537604254
 20
29.8336486293174
 11
28.2055537604254
 21
29.8336486293174
  0
MTEXT
  5
1AA
330
20
100
AcDbEntity
  8
0
  6
CONTINUOUS
100
AcDbMText
 10
15.635555267334
 20
-21.7310562133789
 40
2.0
 41
0.0
 11
-1.83697019872103E-016
 21
-1.0
 71
     7
 72
     5
  7
STANDARD
  1
{\T0.916667;\W0.75;-}
  0
LINE
  5
1AB
330
20
100
AcDbEntity
  8
0
  6
CONTINUOUS
100
AcDbLine
 10
63.6855537604254
 20
-45.7663513706826
 11
63.6855537604254
 21
60.2336486293174
  0
LINE
  5
1AC
330
20
100
AcDbEntity
  8
0
  6
CONTINUOUS
100
AcDbLine
 10
61.6855537604254
 20
62.2336486293174
 11
63.6855537604254
 21
60.2336486293174
  0
LINE
  5
1AD
330
20
100
AcDbEntity
  8
0
  6
CONTINUOUS
100
AcDbLine
 10
61.6855537604254
 20
-47.7663513706826
 11
63.6855537604254
 21
-45.7663513706826
  0
LINE
  5
1AE
330
20
100
AcDbEntity
  8
0
  6
CONTINUOUS
100
AcDbLine
 10
15.6855537604254
 20
-47.7663513706826
 11
13.6855537604254
 21
-45.7663513706826
  0
LINE
  5
1AF
330
20
100
AcDbEntity
  8
0
  6
CONTINUOUS
100
AcDbLine
 10
59.9706009117835
 20
-46.4674083308051
 11
61.39312811503
 21
-45.0448811275586
  0
LINE
  5
1B0
330
20
100
AcDbEntity
  8
0
  6
CONTINUOUS
100
AcDbLine
 10
58.29020393044
 20
-46.7335917497755
 11
61.650978212334
 21
-43.3728174678815
  0
LINE
  5
1B1
330
20
100
AcDbEntity
  8
0
  6
CONTINUOUS
100
AcDbLine
 10
57.2257143367579
 20
-46.3838677810845
 11
58.1743630204921
 21
-45.4352190973503
  0
LINE
  5
1B2
330
20
100
AcDbEntity
  8
0
  6
CONTINUOUS
100
AcDbLine
 10
60.3545684802422
 20
-43.2550136376002
 11
61.2978391286099
 21
-42.3117429892325
  0
LINE
  5
1B3
330
20
100
AcDbEntity
  8
0
  6
CONTINUOUS
100
AcDbLine
 10
56.4428386296127
 20
-45.7525299258566
 11
57.3334754870716
 21
-44.8618930683977
  0
LINE
  5
1B4
330
20
100
AcDbEntity
  8
0
  6
CONTINUOUS
100
AcDbLine
 10
59.7844450217542
 20
-42.4109235337151
 11
60.6678626908928
 21
-41.5275058645765
  0
LINE
  5
1B5
330
20
100
AcDbEntity
  8
0
  6
CONTINUOUS
100
AcDbLine
 10
55.9053894920711
 20
-44.8757655010252
 11
56.9469367425724
 21
-43.8342182505238
  0
LINE
  5
1B6
330
20
100
AcDbEntity
  8
0
  6
CONTINUOUS
100
AcDbLine
 10
58.7570301018297
 20
-42.0241248912665
 11
59.7935307546989
 21
-40.9876242383973
  0
LINE
  5
1B7
330
20
100
AcDbEntity
  8
0
  6
CONTINUOUS
100
AcDbLine
 10
55.6958002814054
 20
-43.6711411493177
 11
58.592913684491
 21
-40.7740277462322
  0
LINE
  5
1B8
330
20
100
AcDbEntity
  8
0
  6
CONTINUOUS
100
AcDbLine
 10
15.6855537604254
 20
-47.7663513706826
 11
22.1855537604254
 21
-47.7663513706826
  0
LINE
  5
1B9
330
20
100
AcDbEntity
  8
0
  6
CONTINUOUS
100
AcDbLine
 10
13.6855537604254
 20
-45.7663513706826
 11
13.6855537604254
 21
-39.2660810617498
  0
LINE
  5
1BA
330
20
100
AcDbEntity
  8
0
  6
CONTINUOUS
100
AcDbLine
 10
13.6855537604254
 20
-39.2660810617498
 11
13.6855537604254
 21
53.7336486293174
  0
CIRCLE
  5
1BB
330
20
100
AcDbEntity
  8
0
  6
CONTINUOUS
100
AcDbCircle
 10
18.6855537604254
 20
58.2339189382502
 40
1.75
  0
LINE
  5
1BC
330
20
100
AcDbEntity
  8
0
  6
CONTINUOUS
100
AcDbLine
 10
13.6855537604254
 20
60.2339189382502
 11
13.6855537604254
 21
53.7336486293174
  0
LINE
  5
1BD
330
20
100
AcDbEntity
  8
0
  6
CONTINUOUS
100
AcDbLine
 10
15.6855537604254
 20
62.2339189382502
 11
13.6855537604254
 21
60.2339189382502
  0
LINE
  5
1BE
330
20
100
AcDbEntity
  8
0
  6
CONTINUOUS
100
AcDbLine
 10
15.6855537604254
 20
62.2339189382502
 11
22.1855537604254
 21
62.2339189382502
  0
LINE
  5
1BF
330
20
100
AcDbEntity
  8
0
  6
CONTINUOUS
100
AcDbLine
 10
18.661460950255
 20
-46.7643549835138
 11
21.6753072394454
 21
-43.7505086943234
  0
LINE
  5
1C0
330
20
100
AcDbEntity
  8
0
  6
CONTINUOUS
100
AcDbLine
 10
17.5003838297103
 20
-46.5112185416854
 11
18.505509575693
 21
-45.5060927957027
  0
LINE
  5
1C1
330
20
100
AcDbEntity
  8
0
  6
CONTINUOUS
100
AcDbLine
 10
20.4198891109437
 20
-43.591713260452
 11
21.4373368066871
 21
-42.5742655647086
  0
LINE
  5
1C2
330
20
100
AcDbEntity
  8
0
  6
CONTINUOUS
100
AcDbLine
 10
16.6454217901831
 20
-45.9519670188395
 11
17.5266578809636
 21
-45.070730928059
  0
LINE
  5
1C3
330
20
100
AcDbEntity
  8
0
  6
CONTINUOUS
100
AcDbLine
 10
19.9909003759176
 20
-42.6064884331051
 11
20.8771866580106
 21
-41.720202151012
  0
LINE
  5
1C4
330
20
100
AcDbEntity
  8
0
  6
CONTINUOUS
100
AcDbLine
 10
16.0342728834388
 20
-45.1489023632107
 11
16.9966582851221
 21
-44.1865169615274
  0
LINE
  5
1C5
330
20
100
AcDbEntity
  8
0
  6
CONTINUOUS
100
AcDbLine
 10
19.1097406126304
 20
-42.0734346340192
 11
20.0729752763346
 21
-41.1101999703149
  0
LINE
  5
1C6
330
20
100
AcDbEntity
  8
0
  6
CONTINUOUS
100
AcDbLine
 10
15.7042479821335
 20
-44.0647137021429
 11
18.9783486382997
 21
-40.7906130459768
  0
LINE
  5
1C7
330
20
100
AcDbEntity
  8
0
  6
CONTINUOUS
100
AcDbLine
 10
16.1089630109583
 20
-42.245785110945
 11
17.1685956819279
 21
-41.1861524399755
  0
LINE
  5
1C8
330
20
100
AcDbEntity
  8
0
  6
CONTINUOUS
100
AcDbLine
 10
-34.714446239575
 20
62.2336486293174
 11
-36.314446239575
 21
62.2336486293174
  0
LINE
  5
1C9
330
20
100
AcDbEntity
  8
0
  6
CONTINUOUS
100
AcDbLine
 10
-36.314446239575
 20
-47.7663513706826
 11
-34.714446239575
 21
-47.7663513706826
  0
LINE
  5
1CA
330
20
100
AcDbEntity
  8
0
  6
CONTINUOUS
100
AcDbLine
 10
22.1855537604254
 20
62.2336486293174
 11
30.6855537604254
 21
62.2336486293174
  0
LINE
  5
1CB
330
20
100
AcDbEntity
  8
0
  6
CONTINUOUS
100
AcDbLine
 10
30.6855537604254
 20
62.2336486293174
 11
61.6855537604254
 21
62.2336486293174
  0
LINE
  5
1CC
330
20
100
AcDbEntity
  8
0
  6
CONTINUOUS
100
AcDbLine
 10
22.1855537604254
 20
-47.7663513706826
 11
30.6855537604254
 21
-47.7663513706826
  0
LINE
  5
1CD
330
20
100
AcDbEntity
  8
0
  6
CONTINUOUS
100
AcDbLine
 10
30.6855537604254
 20
-47.7663513706826
 11
61.6855537604254
 21
-47.7663513706826
  0
DIMENSION
  5
1DB
330
20
100
AcDbEntity
  8
0
  6
CONTINUOUS
100
AcDbDimension
  2
*D3
 10
63.6855537604254
 20
90.0
 11
38.6855545043945
 21
90.0
 70
    32
  1
{\T0.979167;\W0.75;\Q15;<>}
 42
50.0
  3
ISO-25
100
AcDbAlignedDimension
 13
13.6855537604254
 23
60.2339189382502
 14
63.6855537604254
 24
60.2336486293174
 50
0.0
100
AcDbRotatedDimension
1001
ACAD
1000
DSTYLE
1002
{
1070
   342
1005
3F
1002
}
  0
DIMENSION
  5
1E9
330
20
100
AcDbEntity
  8
0
  6
CONTINUOUS
100
AcDbDimension
  2
*D4
 10
85.0
 20
-47.7663513706826
 11
85.0
 21
7.23364901542664
 70
    32
  1
{\T0.979167;\W0.75;\Q15;<>}
 42
110.0
  3
ISO-25
100
AcDbAlignedDimension
 13
61.6855537604254
 23
62.2336486293174
 14
61.6855537604254
 24
-47.7663513706826
 50
270.0
100
AcDbRotatedDimension
1001
ACAD
1000
DSTYLE
1002
{
1070
   342
1005
3F
1002
}
  0
DIMENSION
  5
1F4
330
20
100
AcDbEntity
  8
0
  6
CONTINUOUS
100
AcDbDimension
  2
*D5
 10
58.366995046586
 20
-43.9278118069993
 11
74.2979965209961
 21
-57.7662162780762
 70
    35
  1
{\T0.971841;\W0.801187;\Q15;2-φ3.2TH}
 42
3.50000000000005
  3
ISO-25
100
AcDbDiametricDimension
 15
57.1114574241426
 25
-40.6607603414375
1001
ACAD
1000
DSTYLE
1002
{
1070
   173
1070
     1
1070
   280
1070
     1
1070
   343
1005
3F
1070
   344
1005
1F0
1002
}
  0
MTEXT
  5
1F5
330
20
100
AcDbEntity
  8
0
  6
CONTINUOUS
100
AcDbMText
 10
64.6851348876953
 20
-61.7662162780762
 40
2.5
 41
0.0
 11
1.0
 21
0.0
 71
     7
 72
     5
  7
BIGFONT
  1
{\T0.971841;\W0.801187;\Q15;2-φ6LAND}
  0
DIMENSION
  5
203
330
20
100
AcDbEntity
  8
0
  6
CONTINUOUS
100
AcDbDimension
  2
*D6
 10
59.9648781069319
 20
59.4277295379813
 11
81.3448715209961
 21
72.2337875366211
 70
    35
  1
{\W0.734694;\Q15;4-\U+22053.2}
 42
3.50000000000001
  3
ISO-25
100
AcDbDiametricDimension
 15
57.4062294139188
 25
57.0395677206535
1001
ACAD
1000
DSTYLE
1002
{
1070
   280
1070
     1
1070
   342
1005
3F
1002
}
  0
LINE
  5
204
330
20
100
AcDbEntity
  8
0
  6
CONTINUOUS
100
AcDbLine
 10
16.7055537604254
 20
46.1836486293174
 11
18.7055537604254
 21
46.1836486293174
  0
LINE
  5
205
330
20
100
AcDbEntity
  8
0
  6
CONTINUOUS
100
AcDbLine
 10
16.7055537604254
 20
48.1836486293174
 11
16.7055537604254
 21
46.1836486293174
  0
LINE
  5
206
330
20
100
AcDbEntity
  8
0
  6
CONTINUOUS
100
AcDbLine
 10
16.7055537604254
 20
48.1836486293174
 11
18.7055537604254
 21
48.1836486293174
  0
LINE
  5
207
330
20
100
AcDbEntity
  8
0
  6
CONTINUOUS
100
AcDbLine
 10
-33.714446239575
 20
46.1836486293174
 11
-32.214446239575
 21
46.1836486293174
  0
LINE
  5
208
330
20
100
AcDbEntity
  8
0
  6
CONTINUOUS
100
AcDbLine
 10
-33.714446239575
 20
48.1836486293174
 11
-32.214446239575
 21
48.1836486293174
  0
LINE
  5
209
330
20
100
AcDbEntity
  8
0
  6
CONTINUOUS
100
AcDbLine
 10
-32.214446239575
 20
46.1836486293174
 11
-32.214446239575
 21
48.1836486293174
  0
LINE
  5
20A
330
20
100
AcDbEntity
  8
0
  6
CONTINUOUS
100
AcDbLine
 10
-32.214446239575
 20
48.1836486293174
 11
-32.214446239575
 21
49.6836486293174
  0
LINE
  5
20B
330
20
100
AcDbEntity
  8
0
  6
CONTINUOUS
100
AcDbLine
 10
-33.714446239575
 20
46.1836486293174
 11
-33.714446239575
 21
48.1836486293174
  0
LINE
  5
20C
330
20
100
AcDbEntity
  8
0
  6
CONTINUOUS
100
AcDbLine
 10
-33.714446239575
 20
48.1836486293174
 11
-33.714446239575
 21
49.6836486293174
  0
LINE
  5
20D
330
20
100
AcDbEntity
  8
0
  6
CONTINUOUS
100
AcDbLine
 10
-32.3183187722666
 20
46.1836486293174
 11
-32.214446239575
 21
46.287521162009
  0
LINE
  5
20E
330
20
100
AcDbEntity
  8
0
  6
CONTINUOUS
100
AcDbLine
 10
-33.0254255534531
 20
46.1836486293174
 11
-32.214446239575
 21
46.9946279431955
  0
LINE
  5
20F
330
20
100
AcDbEntity
  8
0
  6
CONTINUOUS
100
AcDbLine
 10
-33.714446239575
 20
46.2017347243821
 11
-32.214446239575
 21
47.7017347243821
  0
LINE
  5
210
330
20
100
AcDbEntity
  8
0
  6
CONTINUOUS
100
AcDbLine
 10
-33.714446239575
 20
46.9088415055686
 11
-32.4396391158262
 21
48.1836486293174
  0
LINE
  5
211
330
20
100
AcDbEntity
  8
0
  6
CONTINUOUS
100
AcDbLine
 10
-33.714446239575
 20
47.6159482867552
 11
-33.1467458970128
 21
48.1836486293174
  0
DIMENSION
  5
21F
330
20
100
AcDbEntity
  8
0
  6
CONTINUOUS
100
AcDbDimension
  2
*D7
 10
58.6855537604254
 20
80.0
 11
38.6855545043945
 21
80.0
 70
    32
  1
{\T0.979167;\W0.75;\Q15;<>}
 42
40.0
  3
ISO-25
100
AcDbAlignedDimension
 13
18.6855537604254
 23
59.9839189382502
 14
58.6855537604254
 24
62.2336486293174
 50
0.0
100
AcDbRotatedDimension
1001
ACAD
1000
DSTYLE
1002
{
1070
   342
1005
3F
1002
}
  0
DIMENSION
  5
22F
330
20
100
AcDbEntity
  8
0
  6
CONTINUOUS
100
AcDbDimension
  2
*D8
 10
25.6855537604254
 20
70.0
 11
22.1855545043945
 21
70.0
 70
    32
  1
{\T0.979167;\W0.75;\Q15;<>}
 42
6.9999992560309
  3
ISO-25
100
AcDbAlignedDimension
 13
18.6855545043945
 23
62.2339189382502
 14
25.6855537604254
 24
62.2336486293174
 50
0.0
100
AcDbRotatedDimension
1001
ACAD
1000
DSTYLE
1002
{
1070
   342
1005
3F
1002
}
  0
DIMENSION
  5
23D
330
20
100
AcDbEntity
  8
0
  6
CONTINUOUS
100
AcDbDimension
  2
*D9
 10
75.0
 20
58.2336486293174
 11
75.0
 21
7.23364889621735
 70
    32
  1
{\T0.979167;\W0.75;\Q15;<>}
 42
102.0
  3
ISO-25
100
AcDbAlignedDimension
 13
60.4355537604254
 23
-43.7663513706826
 14
60.4355537604254
 24
58.2336486293174
 50
90.0
100
AcDbRotatedDimension
1001
ACAD
1000
DSTYLE
1002
{
1070
   342
1005
3F
1002
}
  0
ENDSEC
  0
SECTION
  2
OBJECTS
  0
DICTIONARY
  5
C
100
AcDbDictionary
281
     1
  3
ACAD_GROUP
350
D
  3
ACAD_MLINESTYLE
350
E
  3
ACDBVARIABLEDICTIONARY
350
23E
  3
ACAD_PLOTSTYLENAME
350
23F
  3
ACAD_LAYOUT
350
240
  3
ACAD_PLOTSETTINGS
350
241
  0
DICTIONARY
  5
D
102
{ACAD_REACTORS
330
C
102
}
330
C
100
AcDbDictionary
281
     1
  0
DICTIONARY
  5
E
102
{ACAD_REACTORS
330
C
102
}
330
C
100
AcDbDictionary
281
     1
  3
STANDARD
350
13
  0
DICTIONARY
  5
23E
102
{ACAD_REACTORS
330
C
102
}
330
C
100
AcDbDictionary
281
     1
  3
SORTENTS
350
242
  0
ACDBDICTIONARYWDFLT
  5
23F
102
{ACAD_REACTORS
330
C
102
}
330
C
100
AcDbDictionary
281
     1
  3
Normal
350
243
100
AcDbDictionaryWithDefault
340
243
  0
DICTIONARY
  5
240
102
{ACAD_REACTORS
330
C
102
}
330
C
100
AcDbDictionary
281
     1
  3
Model
350
244
  3
Layout1
350
245
  0
DICTIONARY
  5
241
102
{ACAD_REACTORS
330
C
102
}
330
C
100
AcDbDictionary
281
     1
  0
MLINESTYLE
  5
13
102
{ACAD_REACTORS
330
E
102
}
330
E
100
AcDbMlineStyle
  2
STANDARD
 70
     0
  3

 62
   256
 51
90.0
 52
90.0
 71
     2
 49
0.5
 62
   256
  6
BYLAYER
 49
-0.5
 62
   256
  6
BYLAYER
  0
DICTIONARYVAR
  5
242
102
{ACAD_REACTORS
330
23E
102
}
330
23E
100
DictionaryVariables
280
     0
  1
96
  0
ACDBPLACEHOLDER
  5
243
102
{ACAD_REACTORS
330
23F
102
}
330
23F
  0
LAYOUT
  5
244
102
{ACAD_REACTORS
330
240
102
}
330
240
100
AcDbPlotSettings
  1

  2

  4

  6

 40
0.0
 41
0.0
 42
0.0
 43
0.0
 44
0.0
 45
0.0
 46
0.0
 47
0.0
 48
0.0
 49
0.0
140
0.0
141
0.0
142
1.0
143
1.0
 70
  1712
 72
     0
 73
     0
 74
     0
  7

 75
     0
147
1.0
148
0.0
149
0.0
100
AcDbLayout
  1
Model
 70
     1
 71
     0
 10
0.0
 20
0.0
 11
297.0
 21
210.0
 12
0.0
 22
0.0
 32
0.0
 14
0.0
 24
0.0
 34
0.0
 15
0.0
 25
0.0
 35
0.0
146
0.0
 13
0.0
 23
0.0
 33
0.0
 16
1.0
 26
0.0
 36
0.0
 17
0.0
 27
1.0
 37
0.0
 76
     0
330
20
  0
LAYOUT
  5
245
102
{ACAD_REACTORS
330
240
102
}
330
240
100
AcDbPlotSettings
  1

  2
none_device
  4

  6

 40
0.0
 41
0.0
 42
0.0
 43
0.0
 44
0.0
 45
0.0
 46
0.0
 47
0.0
 48
0.0
 49
0.0
140
0.0
141
0.0
142
1.0
143
1.0
 70
   688
 72
     0
 73
     0
 74
     5
  7

 75
    16
147
1.0
148
0.0
149
0.0
100
AcDbLayout
  1
Layout1
 70
     0
 71
     1
 10
-9.0
 20
-9.0
 11
288.0
 21
201.0
 12
0.0
 22
0.0
 32
0.0
 14
1.00000000000000E+020
 24
1.00000000000000E+020
 34
1.00000000000000E+020
 15
-1.00000000000000E+020
 25
-1.00000000000000E+020
 35
-1.00000000000000E+020
146
0.0
 13
0.0
 23
0.0
 33
0.0
 16
1.0
 26
0.0
 36
0.0
 17
0.0
 27
1.0
 37
0.0
 76
     0
330
22
  0
ENDSEC
  0
EOF
